<?xml version="1.0" standalone="no"?>
<!DOCTYPE svg PUBLIC "-//W3C//DTD SVG 1.1//EN" "http://www.w3.org/Graphics/SVG/1.1/DTD/svg11.dtd" >
<svg>
<metadata>
Created by FontForge 20090622 at Thu Jun 18 11:04:31 2015
 By deploy user
Thank you for travelling with Fontourist (.com) RWE
</metadata>
<defs>
<font id="Journal" horiz-adv-x="500" >
  <font-face 
    font-family="Journal"
    font-weight="400"
    font-stretch="normal"
    units-per-em="1000"
    panose-1="0 0 4 0 0 0 0 0 0 0"
    ascent="800"
    descent="-200"
    x-height="232"
    cap-height="530"
    bbox="-1004 -378 1962.29 954"
    underline-thickness="20"
    underline-position="-123"
    unicode-range="U+0020-U+FB02"
  />
<missing-glyph 
d="M63 0v800h375v-800h-375zM125 63h250v675h-250v-675z" />
    <glyph glyph-name=".notdef" 
d="M63 0v800h375v-800h-375zM125 63h250v675h-250v-675z" />
    <glyph glyph-name=".null" horiz-adv-x="0" 
 />
    <glyph glyph-name="nonmarkingreturn" horiz-adv-x="233" 
 />
    <glyph glyph-name="space" unicode=" " horiz-adv-x="233" 
 />
    <glyph glyph-name="exclam" unicode="!" horiz-adv-x="200" 
d="M180 432q-4 -3 -6 -15.5t-7 -17.5q-4 -19 -14 -50q-1 -2 -6 -33q-4 -20 -13 -32q-1 -15 -10 -38q-11 -28 -13 -38q-5 -8 -13 -28l-3 -2q-4 -4 -8 -4q-2 0 -5 1q-6 11 2 35q1 3 0 14h3q12 42 29 129q10 25 10 50q3 4 8 21q16 56 25 119q2 2 8 29q4 9 4 19q0 12 -7 26
q21 7 30 7q17 0 21 -17q-3 -29 -17.5 -87t-17.5 -88zM59 -14q-10 -20 -24 -18q-25 8 -25 25q0 16 11 26t27 8l6 -6l4 -3q14 -10 4 -24q-1 -2 -3 -8z" />
    <glyph glyph-name="quotedbl" unicode="&#x22;" horiz-adv-x="117" 
d="M125 503q0 -19 -6 -31l-18 -4q2 22 2 18q1 4 -2 7q1 16 -3.5 46t-4.5 43v17q0 10 12 13q12 0 17 -9q-3 -24 -3 -41q0 -20 4 -31q0 -5 1 -14t1 -14zM79 462l-18 2q3 12 0 20q-4 10 -3 16q-1 11 -8 31q0 4 -6 41q-3 7 -3 12q0 4 2.5 6t3.5 3l2 1q5 4 15 2q6 -11 10 -28
q5 -28 6 -30q1 -22 4 -43q0 -10 -5 -33z" />
    <glyph glyph-name="numbersign" unicode="#" horiz-adv-x="480" 
d="M279 305q27 4 69 0q59 -6 70 -6q21 -3 25 -6q10 -5 10 -22q-22 -4 -93 -6q-55 -2 -82 -8q-4 -10 -4 -22q0 -13 8 -42t7 -45q-6 -9 -13 -9q-8 0 -21 13q-9 7 -13 26.5t-7.5 25t-3.5 15.5q0 4 1 11.5t1 11.5q0 8 -5 11q-7 -5 -36 -7q-22 -1 -25 -16q1 -3 -5 -40
q-1 -4 -1 -8q0 -12 11 -19q3 -16 -17 -36q-5 -1 -10 -1q-25 0 -29 26l12 85l-54 -11q-19 -5 -29 -5q-15 0 -29 10q-2 6 -2 11q0 16 21 27q35 4 102 17q8 20 8 22t-1 4l-45 -9q-7 -3 -16 -3q-15 0 -33 11q-3 4 -3 10q0 7 6 17l4 8q10 -2 19 -2q13 0 39 7t39 7q6 9 8 33.5
t5 32.5q-4 7 -4 15q0 12 8 28q6 8 15 8q4 0 24 -9q9 -11 9 -29q0 3 -7 -47q-3 -6 -9 -19q-1 -2 -1 -3q0 -2 2 -2q36 7 47 21q18 80 69 94l12 -18q-13 -24 -30 -74q9 1 25 1q13 7 48 8q39 1 51 4q7 0 21.5 1t21.5 1q29 0 45 -16v-18q-43 1 -84 -5l-77 -11q-50 -8 -69 -21
q-1 -10 -5 -28zM200 322q-11 -9 -11 -27l41 4q4 2 4 10v16q-24 0 -34 -3z" />
    <glyph glyph-name="dollar" unicode="$" horiz-adv-x="418" 
d="M434 572q-21 -14 -21 -27q-20 -16 -30 -44q-30 -54 -87 -171l-7 -5q52 -61 46 -119q-8 -2 -8 -8v-6l-5 -3q-25 -62 -112 -90q-26 -53 -33 -165h-3q1 -32 -18 -60q0 35 5 201q-6 1 -13 1q-16 0 -39 -5q-10 -9 -19 -35.5t-18 -35.5q-1 -8 -7.5 -27.5t-6.5 -30.5q0 -8 3 -16
q-8 -18 -12 -24q-9 -10 -24 -13q-14 14 -14 32q0 14 7 33l12 32q12 31 30 92q-10 4 -28 30v22l21 -10q14 -6 22 -3q23 31 40 77q9 27 29 82q13 32 23 66q-40 23 -44 26q-23 17 -27 41q3 53 53 96l93 65q41 9 58 55q9 27 28 79q-1 5 -1 9q0 10 20 36q17 -1 30 -13
q4 -10 4 -21q0 -16 -13 -45t-15 -41q5 -4 11 -4q4 0 14 3t15 3q19 28 29 28q5 0 11 -2q11 -6 11 -14q0 -4 -3.5 -11.5t-3.5 -11.5q0 -7 9 -13q3 -7 3 -13q0 -12 -15 -22zM340 564l-9 -3h-2q-22 -31 -69 -131q0 -7 -8 -19l-5 -5q-7 -10 -7 -20q0 -4 1 -8l-3 -3q-3 -3 -7 -2
v-15q20 -13 25 -12q4 16 18 43.5t18 40.5q1 4 7.5 13t4.5 16l47 102q-4 5 -11 3zM203 490q-11 -10 -38 -29q-24 -31 -24 -46q0 -7 3 -15q31 -22 41 -21q35 69 56 135q-19 -8 -38 -24zM278 273q-17 -31 -26 -52q-14 -31 -20 -56q3 -1 22 4q45 37 43 70q-3 9 -7 19.5t-12 14.5
zM215 315q-12 -18 -34 -77q-29 -48 -48 -109q6 -5 11 -5q4 0 14.5 5t17.5 4q7 23 38 105q0 13 11 36.5t12 34.5q-10 7 -22 6z" />
    <glyph glyph-name="percent" unicode="%" horiz-adv-x="598" 
d="M555 480q-49 -40 -132.5 -136.5t-132.5 -136.5q-12 -22 -53.5 -57t-52.5 -59q-25 -19 -65 -92l11 -11q-14 -3 -18 -6l-5 -2q-6 -3 -11 -3q-10 0 -17 12q-2 7 -2 13q0 13 9 30l15 28q25 44 84 106q73 75 93 99l54 51q31 30 47 58v15q6 -2 10 -2q10 0 23 16q6 12 6 9
q21 27 21 34q0 4 -2.5 7.5t-2.5 10.5v4q-1 5 -7 27q12 -14 29 -32q2 -1 4 -1q3 0 4 1q8 16 27 36q25 26 30 33q7 3 13 3q11 0 31 -20q4 -6 4 -12q0 -12 -14 -23zM274 411q-3 -10 -17 -43q-6 -20 -40 -57q-67 -55 -130 -55q-19 0 -37 5q-38 19 -49 70q-2 31 22 61
q33 41 37 53l32 15q14 5 16 26q9 -2 13 2l2 3q5 7 12 8q70 24 93 21q2 -3 19 -16q12 -9 11 -22q7 -4 12 -19l2 -6q9 -19 2 -46zM217 469q-9 -22 -24 -24q-15 4 -38 -9l-34 -22q-1 -10 -16 -19q-10 -4 -10 -19q-14 1 -19 -5t-13 -18q-2 -3 -10 -11q-9 -22 11 -37q8 -6 24 -4
q8 2 24 5q30 6 45 20q69 64 69 117q0 10 -2 20q-5 11 -7 6zM551 104q0 -16 -7 -39q-11 -21 -41 -39l-50 -30q-4 2 -8 2q-5 0 -14 -6q-13 -9 -14 -9q-20 -5 -37 -5q-34 0 -52 22q-1 6 -7 22t-6 25q0 12 7 23q34 56 46 70q30 36 68 44q10 11 22 2q6 -5 22 -9q5 -2 7 -3
q6 -3 13 3q25 -10 30 -13q16 -9 20 -23q2 -31 1 -37zM490 135q-12 6 -25 -8q-26 2 -45 -15q-7 -7 -30 -37l-18 -24q-4 -7 -4 -12q0 -4 2 -7q6 -2 13 -2q13 0 34 8.5t30 9.5q4 9 17 13l13 4q36 35 32 60q-3 1 -19 10z" />
    <glyph glyph-name="ampersand" unicode="&#x26;" horiz-adv-x="548" 
d="M495 245q-9 -13 -14 -25q-9 -3 -41 -43l-40 -51q-5 -9 -21 -34q-3 -6 -12 -15q11 -6 22 -14q33 -24 58 -22q6 -4 10 -20q1 -3 5 -12q-6 -4 -32 -6q-58 24 -98 47q-69 -69 -145 -129q-48 -38 -103 -38q-34 0 -69 17q-21 10 -11 60q12 18 28 57l71 108q36 56 61 114
q26 33 26 82q0 19 -5 57.5t-5 57.5q0 21 13 81q6 27 22 48q15 0 27 -11q9 -12 19 -23q8 -21 8 -44q0 -26 -16.5 -76.5t-16.5 -76.5q0 -31 17 -59q10 -16 31 -81q17 -50 48 -75q22 11 47 38q12 13 24 20q36 40 54 57q33 31 82 64zM235 192q-2 18 -3 21q-4 10 -17 9
q-17 -9 -32 -50q-11 -5 -18.5 -25t-21.5 -24q-9 -32 -48 -92q-33 -51 -34 -102q15 -6 28 -6q12 0 29 8q26 12 32 14q90 74 151 141q-21 24 -36.5 55.5t-29.5 50.5z" />
    <glyph glyph-name="quotesingle" unicode="'" horiz-adv-x="46" 
d="M49 505q-1 -9 -4 -18l-19 1q2 6 2 11t-2 9q-3 11 -3 16q-1 11 -7 31l-7 41q-3 16 1 20l1 1q1 0 2 1l1 1q4 2 9 2q3 0 7 -1q6 -11 9 -28q3 -13 5.5 -28.5t4.5 -44.5v-14z" />
    <glyph glyph-name="parenleft" unicode="(" horiz-adv-x="298" 
d="M220 457q-14 -19 -37 -63l-10 -16l-24 -35q-91 -129 -91 -281q17 -49 21 -56q15 -27 45 -35h20q10 -1 24 -15q-12 -3 -38 -9q-18 -4 -33 1q-27 6 -69 66q-19 36 -19 85q0 44 15 90q5 6 10.5 26.5t12.5 29.5q8 23 28 65q3 11 14 17l5 4q7 3 7 9q0 3 -1 7q45 83 87 145
q7 -1 8 4l2 9q1 5 5 10q30 40 43 54q26 28 55 40q13 -3 16 -20l4 -8q-27 -20 -53.5 -58.5z" />
    <glyph glyph-name="parenright" unicode=")" horiz-adv-x="236" 
d="M85 89q-1 -11 -12.5 -21t-11.5 -19q-41 -43 -116 -138q-11 -3 -20.5 -15l-18 -22.5t-27.5 -15.5q-3 17 6 24q15 12 16 15q13 20 45 56q1 10 13 19.5t11 17.5q5 9 22 20q11 9 11 19q13 8 27.5 31.5t21.5 30.5q60 80 95 188q12 37 12 88v45q-1 30 -1 45q-2 9 -12 37
q-8 23 -8 37q-7 9 -18 47q-11 4 -13 14l-4 19q-2 5 -8 8q0 26 17 30q31 -12 41 -58q11 -8 16.5 -31.5t13.5 -30.5q14 -78 14 -138q0 -173 -112 -302z" />
    <glyph glyph-name="asterisk" unicode="*" horiz-adv-x="349" 
d="M175 251q23 -13 63 -45q28 -22 34 -31q13 -16 13 -44q-25 21 -66 46q-58 35 -69 43q-20 -47 -20 -82q0 -6 -1 -16q-1 -7 5 -17q-8 -4 -13 -4q-10 0 -14 13l-1 3q-1 1 -2 3v38q0 19 5 33q4 19 7 52q-27 -10 -58 -10q-23 0 -48 6q-2 7 -2 13q0 15 12 19q26 -3 75 3
q-3 6 -16 30q-10 19 -10 31q0 15 14 29q22 3 31 -14q-1 -6 -1 -11q0 -18 23 -49q8 19 27 55v3l-5 10q15 0 22 14q12 22 22 22q9 0 21 -12q0 -6 -4.5 -16t-4.5 -15q-5 -4 -12 -17.5t-14 -18.5q-6 -9 -14 -27q2 -1 10 -1l5 11l11 -8q42 7 71 7q11 0 20 -1q6 -3 8 -7
q0 -3 -1.5 -9t-1.5 -9q-11 -6 -18 -6q-4 0 -7 2q-16 2 -42 -4q-30 -7 -42 -7q-5 -5 -12 -5z" />
    <glyph glyph-name="plus" unicode="+" horiz-adv-x="347" 
d="M220 296q51 7 61 7q22 0 40 -7l-1 -25q-11 1 -22 3q-12 1 -20 -6q-30 0 -59 -6q-1 -23 -5 -68q2 -19 -1.5 -23.5t-19.5 -16.5q-4 -1 -9 -1t-10 1q-6 16 -6 35q0 11 2.5 31.5t2.5 31.5q-39 -9 -66 -10q-5 0 -16.5 -2t-17.5 -2q-17 0 -18 18l6 16t13 12q26 -2 49 -2
q31 0 54 4q1 9 8 56q2 14 21 56l26 -1q-11 -20 -9 -35q2 -8 2 -14q0 -8 -3 -17q1 -5 -2 -35z" />
    <glyph glyph-name="comma" unicode="," horiz-adv-x="180" 
d="M112 45q1 -8 -6 -32q-21 -74 -85 -119q-3 3 -11 5.5t-8 8.5q0 3 1.5 8t7.5 9l2 2q6 4 7 9q31 47 38 60q18 35 21 68q6 6 15 6q16 0 22 -16q-4 -5 -4 -9z" />
    <glyph glyph-name="hyphen" unicode="-" horiz-adv-x="331" 
d="M210 244q15 0 42 -6t39 -6q14 -6 22 -30q-8 -25 -42 -23q-9 8 -22 10h-25q-8 3 -28.5 1t-32.5 5q-12 -1 -25 -1q-46 0 -79 10q-41 12 -41 36q9 9 40 9q11 0 65 -3q50 -3 87 -2z" />
    <glyph glyph-name="hyphen" unicode="&#x2010;" horiz-adv-x="331" 
d="M210 244q15 0 42 -6t39 -6q14 -6 22 -30q-8 -25 -42 -23q-9 8 -22 10h-25q-8 3 -28.5 1t-32.5 5q-12 -1 -25 -1q-46 0 -79 10q-41 12 -41 36q9 9 40 9q11 0 65 -3q50 -3 87 -2z" />
    <glyph glyph-name="period" unicode="." horiz-adv-x="140" 
d="M67 20q-3 -29 -31 -32q-15 9 -15 15q-2 11 -2 19q0 28 23 28q8 -2 15.5 -4.5t9.5 -11.5v-14z" />
    <glyph glyph-name="slash" unicode="/" horiz-adv-x="204" 
d="M199 425q-27 -20 -25 -54q-11 -6 -20 -30q-12 -28 -17 -34q0 -14 -9 -20q-2 -19 -19 -55.5t-18 -57.5q-9 -13 -17 -39q-11 -33 -14 -40q-13 -53 -30 -155q1 -11 -9 -23q-2 -4 -9 -16q-19 41 -12 99q5 42 18 92q6 21 59 178q7 20 101 253q6 9 16 9q9 0 19 -7q7 -6 7 -27
q0 -11 -2 -26q-5 -7 -12.5 -19.5t-6.5 -27.5z" />
    <glyph glyph-name="zero" unicode="0" horiz-adv-x="414" 
d="M373 276q-19 -70 -35 -96q-25 -68 -81 -132.5t-124 -94.5q-23 -6 -43 -6q-86 0 -86 108q0 21 5 62q5 5 8 18q1 10 3 20q8 18 44 117q16 23 21 32q11 19 15 35q12 23 39.5 62.5t38.5 59.5q10 8 25 25q-5 1 -27 -15q-3 -6 -12.5 -10.5t-11.5 -7.5q-6 -4 -17 -21
q-8 -13 -21 -13q-7 0 -16 3q25 57 47 72q55 54 153 59q19 -2 28 -45q26 -41 30 -50q14 -29 13 -57q5 -4 4.5 -14.5t1.5 -12.5zM289 495q-7 0 -18.5 -8t-16.5 -9q-73 -72 -139 -195q-72 -136 -72 -224q0 -23 4 -44q11 -7 11 -18q12 -9 22 -12q62 3 114 53q14 10 56 63
q86 111 88 260q1 87 -49 134z" />
    <glyph glyph-name="one" unicode="1" horiz-adv-x="181" 
d="M139 479l-43 -234q-24 -138 -26 -235q10 -8 10 -31q-5 -10 -25 -10q-24 13 -24 39q0 8 2.5 24t2.5 24q0 9 -2 16l18 127l35 200q22 121 29 201q2 23 14 41q5 -2 16 -5q5 -1 16 -10q-3 -24 -23 -147z" />
    <glyph glyph-name="two" unicode="2" horiz-adv-x="421" 
d="M389 569l1 -3q2 -10 -3 -16q-4 -15 -21 -46q0 -14 -15 -29.5t-16 -23.5q-20 -26 -54 -83q-14 -2 -22.5 -19t-16.5 -21q-2 -5 -34 -48l-95 -134q-5 -11 -40 -61q-26 -37 -28 -67q25 -14 63 -14q35 0 78 11q25 6 104 34q63 23 106 29q-10 -6 -47 -30q-16 -10 -31 -11
q-28 -17 -50 -29q-31 -16 -53 -21q-52 -18 -123 -18q-26 0 -54 2q-47 14 -47 40q0 29 36 89q10 6 18 27q34 40 84 113l81 116l46 61q8 4 16 18.5t13 18.5q7 10 18 29q4 9 22 40q15 25 15 41q0 7 -2 14q-9 7 -20 7t-28 -8q-23 -11 -28 -12q-7 -8 -34 -22q-22 -12 -30 -29
q-31 0 -47 18q2 16 20 25l6 3q10 5 12 12q14 9 48 23.5t49 26.5q48 1 62 -3q29 -8 46 -42q-7 -4 -5 -8z" />
    <glyph glyph-name="three" unicode="3" horiz-adv-x="445" 
d="M395 491q-8 -12 -28 -45q-15 -13 -44 -43l-59 -38q-34 -23 -54 -44q38 -3 108 -14q59 -17 75 -70q0 -93 -139 -165q-13 -1 -34 -12t-31 -13q-20 -6 -44 -6q-41 0 -86 16q-42 23 -54 64q5 2 10 2q11 0 23 -11q15 -15 20 -17q30 -13 68 -13q60 0 124 33q57 39 68 50
q35 34 36 74q-8 15 -29 22q-3 1 -37 6q-22 9 -37 6l-6 -8q-15 9 -39 9q-28 -1 -36 2q-12 4 -36 29q15 24 54 53l65 45q21 14 62 46q34 28 49 60q2 7 2 11q0 10 -9 11q-21 9 -50 9q-34 0 -76 -12q-33 -1 -63 -18q-7 2 -27 -6q-21 -8 -31 10q-1 5 -1 9q0 7 15 21q14 3 86 25
q51 16 87 16q67 0 105 -38q9 -30 -7 -56z" />
    <glyph glyph-name="four" unicode="4" horiz-adv-x="339" 
d="M319 395q-2 -6 -9 -22q9 -4 9 -12q0 -5 -3.5 -14.5t-3.5 -13.5q-43 -47 -72 -167q-6 -2 -8 -17q0 -6 -4 -10q-11 -18 -17 -53q-4 -25 -11 -57q0 -21 -4 -60q-12 2 -36 22q0 9 20 115l29 100q10 25 10 34q-16 -12 -52 -28q-22 -17 -52 -17q-23 0 -44 11q-55 39 -55 132
q0 48 12 95q6 23 32 74q8 26 35 45q23 -2 27 -16q3 -19 -27 -49q-4 -5 -4 -17q-11 -8 -17 -29q-7 -24 -12 -31l-9 -67q-6 -4 -2 -11q5 -9 5 -15l6 -41q7 -36 53 -36q29 0 67 23l60 41q19 45 52 141q8 22 26 79q4 3 9 15q4 8 14 11q11 0 21 -26z" />
    <glyph glyph-name="five" unicode="5" horiz-adv-x="377" 
d="M68 74h-5q3 11 7 20q7 14 17 0q6 -20 33 -28q39 4 73.5 31.5t48.5 64.5q2 11 2 21q0 29 -19 47q-37 35 -98 35q-38 0 -72 -14q-8 1 -23 -1t-21 -2q-26 0 -39 23q17 35 54 93q42 64 56 91q-2 5 -2 12q0 29 24 29q4 0 8 -1q36 8 99 15q72 7 100 12q24 -1 48 -3
q29 -3 45 -13v-23q-6 0 -58 -4q-29 -2 -53 -1l-5 -4q-37 -2 -84 -13q-65 -15 -81 -17q-9 -18 -32 -52t-32 -52l-28 -41q3 -1 8 -1q9 0 29.5 5t30.5 6.5t29 1.5q51 0 91 -24q9 -15 28 -20q16 -32 30 -47q6 -19 6 -37q0 -28 -22 -64q-6 -9 -41 -56q-5 0 -9 -4l-3 -3
q-10 -10 -17 -13q-18 -19 -50 -19q-12 0 -45 5q-3 6 -18 23q-9 10 -10 22z" />
    <glyph glyph-name="six" unicode="6" horiz-adv-x="405" 
d="M308 36q-82 -58 -155 -58q-37 0 -66 16q-16 9 -27 6q0 12 -14 37q-13 22 -9 39q-5 19 -5 38q0 25 8 59l14 59q12 34 45 97q-2 13 9 16q58 94 77 119q45 61 101 99q4 1 7 1q24 0 24 -19v-10l-65 -59q-35 -33 -51 -70q-6 -1 -14 -18q-3 -6 -7 -10q-14 -12 -29 -41
q-15 -33 -24 -43q0 -5 -6 -16t-5 -18q-10 -9 -19 -32.5t-15 -33.5q-1 -18 -6 -55q2 1 7 6l3 3q3 4 45 37q22 17 43 22q41 21 89 21q47 0 77 -21q39 -36 39 -73q0 -13 -5 -26q-10 -42 -66 -72zM300 184q-18 5 -37 5q-48 0 -97 -27l-47 -36q-27 -22 -36 -44q-4 -25 17 -48
q26 -14 65 -14q28 0 46 7q25 9 83 45q50 41 46 68q-14 32 -40 44z" />
    <glyph glyph-name="seven" unicode="7" horiz-adv-x="276" 
d="M274 392q0 -6 -5 -18q-46 -86 -77 -166q-8 -12 -18 -35l-16.5 -36.5t-29.5 -68.5q-17 -42 -15 -71q10 -7 14 -18q-5 -13 -18 -13q-5 0 -15 2q-23 13 -23 45q0 6 5 42q11 31 41.5 92.5t41.5 90.5q20 48 32 71q23 41 37 82q18 36 18 52h2q4 10 10 33q5 18 -6 28
q-27 25 -85 25h-12q-11 -1 -20 -1h-31q-15 2 -41 -5q-29 -7 -41 -7q-23 0 -39 17q-4 30 27 30h13q10 -1 14 -1q12 0 18 4l109 12q4 -5 15.5 -4.5t14.5 -2.5q45 -10 59 -17q43 -21 43 -75q0 -40 -22 -87z" />
    <glyph glyph-name="eight" unicode="8" horiz-adv-x="337" 
d="M311 333l-78 -59q-2 -10 7 -27q14 -20 36 -62q3 -14 3 -30q0 -66 -33 -108q-30 -37 -95 -65q-80 0 -109 36q-36 45 -36 69q0 11 4 22q4 24 25 52l39 45q17 12 60 50q10 8 32 29q-67 72 -62 128q25 85 109 142q53 36 85 36q22 0 40 -14q13 -10 4 -34q-16 -21 -41 -16
q-4 11 -11 11q-3 -1 -15 -6q-4 -3 -11 -3q-7 -5 -39 -24q-23 -13 -34 -31h-4q-10 -12 -28 -38q-15 -22 -15 -43q0 -12 6 -24q22 -44 47 -62q87 57 118 105q-5 15 -29 35q-10 9 -16 16q12 17 30 17q5 0 10 -2q35 -7 44 -55q3 -48 -43 -90zM210 223q-4 8 -15 21
q-92 -71 -140 -137q0 -9 -8 -27v-8q16 -28 53 -47q54 -4 73 16q29 15 47 41q20 39 20 73q0 24 -11 41q-10 8 -19 27z" />
    <glyph glyph-name="nine" unicode="9" horiz-adv-x="378" 
d="M344 434q-28 -53 -79 -88q-7 -21 -42 -34q-39 -43 -108 -43q-12 0 -23 1q-60 21 -82 76q-9 92 88 195q27 22 49 34l68 36q52 9 69 9q33 0 56 -16l18 -18q10 -11 11 -21q19 -26 19 -70q0 -10 -1 -28.5t-1 -28.5q-4 -9 -9 -47q-4 -9 -23 -60q-18 -36 -52 -110
q-5 -11 -18 -29q-23 -41 -94 -151q-11 -16 -34 -61q-6 -12 -16 -12q-7 0 -15 6q-3 8 -3 15q0 14 15 35.5t18 30.5q14 14 34 47.5t29 46.5q-1 7 3 11l9 6q1 3 0 5q43 76 82 153q21 42 32 110zM326 562q-16 13 -42 13q-3 0 -56 -7q-6 -2 -33 -15q-19 -9 -30 -21
q-10 -3 -25 -16t-22 -16q-33 -40 -47 -64q-23 -39 -23 -73q0 -12 3 -25q10 -6 28 -20q14 -3 28 -3q37 0 77 25l67 50q4 2 2 9q13 6 22 18q11 17 16 21q9 8 13 25q1 13 3 28q1 8 7 25q27 0 34 -5q0 8 -6.5 18t-15.5 33z" />
    <glyph glyph-name="colon" unicode=":" horiz-adv-x="121" 
d="M64 358q0 -21 -11 -26q-5 -2 -14 0l-3 2q-4 1 -23 -10q9 19 9 23q-2 9 -5 17q-1 9 9 15q7 2 29 -6q2 -1 13 1q-4 -11 -4 -16zM18 122q-10 8 -10 45q20 -4 21 -4q13 -4 17 -11q12 -15 2 -29q-11 -16 -30 -1z" />
    <glyph glyph-name="semicolon" unicode=";" horiz-adv-x="221" 
d="M127 279q-19 4 -26 21q-1 5 4 32q21 3 39 -20q2 -5 2 -9q0 -16 -19 -24zM127 70l-40 -36q-7 -11 -29 -31q-1 -6 -5 -8l-8 -4v-9q-8 2 -15 -3q-12 -8 -24 5q50 53 87 120q8 7 17 7q22 0 22 -20q0 -3 -2.5 -9.5t-2.5 -11.5z" />
    <glyph glyph-name="less" unicode="&#x3c;" horiz-adv-x="424" 
d="M372 65q-8 3 -37 16q-32 14 -146 74l-20 5q-1 9 -13 12l-8 4q-20 19 -78 56q-52 33 -74 63q0 33 21 47q14 9 48.5 16t48.5 16q67 12 171 19q21 1 39 1q65 0 68 -20q2 -10 2 -17q0 -9 -4 -10q-13 7 -26 7q-9 0 -26.5 -5t-26.5 -5q-7 0 -14 2q-7 -3 -24.5 -2.5t-23.5 -3.5
q-115 3 -195 -38q75 -72 213 -138q32 -14 114 -53q26 -13 26 -24q0 -13 -35 -22z" />
    <glyph glyph-name="equal" unicode="=" horiz-adv-x="361" 
d="M266 277q-9 1 -17 -5q-30 3 -84 -6q-58 -10 -84 -9q10 -2 -30 -2q-18 0 -24 18q1 4 2 15q0 8 12 14q51 -7 79 -7q34 0 60 8q27 2 54 5q30 0 53 -10l6 -26q-8 2 -27 5zM303 196q-9 2 -16 2t-22.5 -5t-26.5 -4q-21 -2 -61 -14q-26 -5 -78 -13q-13 -4 -22 -4q-7 0 -9 2.5
l-5 6.5l-2 2q-4 6 -4 13q0 5 2 10q21 12 53 18q45 8 54 11q31 3 82 7q16 1 58 -7z" />
    <glyph glyph-name="greater" unicode="&#x3e;" 
d="M101 65q-31 9 -31 22q0 11 23 24l101 54q123 67 190 140q-72 41 -174 38q-5 4 -20.5 3.5t-21.5 2.5q-6 -2 -13 -2q-8 0 -23.5 5t-24 5t-25.5 11q-2 -4 -4 -5q-2 0 -6 11l10 -6q1 3 1 10q3 21 62 20q15 0 34 -1q92 -7 151 -20q12 -8 43 -15.5t43 -16.5q19 -15 19 -48
q-18 -28 -66.5 -63t-68.5 -57q-5 -3 -7 -4q-11 -3 -12 -12l-17 -5q-86 -52 -130 -75q-4 -3 -33 -16z" />
    <glyph glyph-name="question" unicode="?" horiz-adv-x="365" 
d="M334 439l-24 -24q-15 -13 -30 -17q-13 -14 -67 -49q-8 -7 -25 -19q-5 -3 -64 -43q-39 -27 -55 -54q2 -5 7 -14q7 -4 66 -12q11 -2 37 -17l-65 -5q-57 0 -77 31q-7 11 -3 34q18 29 66 59q54 33 71 52q7 5 53 35q13 6 39 24l37.5 26t35.5 35q11 11 23 31q-11 45 -82 55
q-56 8 -67 8q-17 0 -44 -3l-45 -5q-10 -6 -24 -8q-26 -10 -33 -13q-19 -9 -30 -20q-8 1 -29 18q1 17 17 24l29 8q17 15 39 15q64 17 121 17q118 0 175 -75l6 -17q-6 -39 -58 -77zM68 -7h-1q-11 0 -11 11q0 7 6 12q2 1 7 8q26 -1 55 5q4 -5 4 -10q0 -7 -9 -16l-3 -8
q-5 2 -7 2q-3 0 -10 -5q-12 -11 -19 -11t-12 12z" />
    <glyph glyph-name="at" unicode="@" horiz-adv-x="531" 
d="M680 -103q-19 -6 -27 -13q-119 -43 -252 -43q-156 0 -273 59l-81 82q-40 50 -38 106q4 111 73 226q45 75 168 164q17 5 35 5q22 0 57 -9q42 -10 56 -12q120 -56 141 -148q4 -90 -44 -182q-46 -88 -121 -143q-28 -21 -53 -21q-20 0 -33 16q-21 25 -31 25q-7 0 -14 -3
q-19 -19 -46 -19q-19 0 -36 10q-17 25 -17 61q0 22 7 40q43 74 141 155q14 20 47 23h55q27 -14 27 -44t-49 -112q-17 -29 -43 -49q1 -7 -2.5 -19t-3.5 -17q0 -8 6 -15q40 12 86 72q83 109 83 184q0 39 -19 74q-67 77 -187 88q-55 -17 -103 -70q-7 -7 -76 -100
q-36 -48 -53 -156q-5 -86 62 -134q7 -23 19 -27q6 -2 20 -16t26 -13q38 -26 95 -35q34 -5 101 -14l171 12q15 7 54 14q35 7 53 17h46q-17 -16 -27 -19zM362 226q-9 1 -29 -4q-52 -38 -97 -82q-40 -39 -40 -87q0 -10 2 -20q17 -1 37 10l33 20q-1 5 -1 9q0 7 8.5 19t8.5 21
q19 19 24 19q7 14 29 36t29 36q5 8 5 14q0 7 -9 9z" />
    <glyph glyph-name="A" unicode="A" horiz-adv-x="416" 
d="M393 276h-13q-3 -1 -6 -7q-19 3 -31 -9q-1 -10 -1 -21q0 -31 11 -70q9 -31 19 -69q8 -13 40 -82q4 -4 4 -9q0 -10 -22 -23q-22 9 -44 60q-8 20 -31 72q-7 33 -15 48q-2 27 -11 79q-43 -8 -126 -36q-15 -1 -48 -9q-13 -3 -17 -18q-40 -43 -67 -125q11 12 39 36l-23 -62
q-7 -1 -10 -12q-7 -28 -45 -28q-8 0 -14 2q1 3 1 5q0 5 -3 7q1 53 41 116q26 42 46 82l-23 8q-12 7 -11 20q-1 10 23 27q6 2 12 2q5 0 16.5 -5t17.5 -3q14 22 44 65q18 19 39 50l35 52q5 12 20 33.5t20 33.5q5 3 9 14t6 14q-2 3 3 19q1 2 2 10q9 2 12 12q5 17 18 18
q20 2 35 -7q2 -16 2 -40q0 -23 -2 -55q2 -13 2 -26q0 -33 -12 -61q0 -14 -3 -41q2 -12 7 -36q8 0 24 3t24 3q20 0 32 -13q-13 -18 -26 -24zM288 378q2 49 1 70q-46 -61 -130 -189q34 11 102 25q13 1 29 12q-4 29 -2 82z" />
    <glyph glyph-name="B" unicode="B" horiz-adv-x="410" 
d="M161 288q114 2 171 -61q16 -24 16 -51q0 -16 -7 -33q-6 -3 -11 -13.5t-11 -13.5l-6 -15q-9 -12 -30.5 -30.5t-30.5 -28.5q-87 -61 -169 -61q-33 0 -62 11q-12 10 -24.5 22t-11.5 27q10 6 19 2q7 -3 9 -2q15 68 49 189q2 6 -8.5 18t-10.5 16q0 7 10 12q23 12 30 48
q10 48 16 60q0 2 1 4v3l2 4q1 5 -3 11q11 13 16.5 37.5t9.5 39.5q12 15 28 15q4 0 8 -2q12 -9 12 -21q0 -9 -9 -27t-9 -27q-7 -27 -22 -80q1 -5 -3 -12.5t-4 -9.5q120 60 182 128q12 9 15 28q-26 22 -79 24q-28 0 -85 1q-9 1 -29 -2q-23 -4 -31 -4q-26 0 -38 19q-2 2 -6 9
q-1 3 -1 5q0 6 5.5 11t22.5 7l11 3q2 -8 10 -8q3 0 11 3t13 3q10 0 20 -6h103q62 -4 97 -26q23 -27 24 -49q-10 -15 -34 -45q-1 -7 -15 -16q-12 -14 -101 -82q-12 -3 -29 -14l-27 -17q-1 0 -3 -2zM115 235l4 -5q-6 -5 -9 -6t-4 -1q-4 -25 -20 -73q-2 -17 -13.5 -57
t-11.5 -58q0 -9 2 -16q13 -3 34 1q32 6 34 6q75 37 104 59q57 42 69 94q-27 60 -88 54q-11 8 -31 8h-37q-11 -1 -33 -6z" />
    <glyph glyph-name="C" unicode="C" horiz-adv-x="425" 
d="M392 59q-6 -9 -12 -10q-20 -14 -39 -29q-26 -16 -44 -17q-29 -20 -70 -25q-24 -2 -73 -7q-52 6 -90 34q-41 31 -51 79q-5 14 -5 31q0 28 13 71l20 66l56 102q33 60 70 95q87 118 164 155q14 2 26 2q28 0 43 -13v-18q-1 -9 -9 -16q-3 -1 -32 -2q-21 -1 -30 -12l-40.5 -26
t-36.5 -36q-145 -145 -193 -351q-2 -56 25 -90q28 -37 82 -37q15 0 44.5 4.5t41.5 5.5q29 8 84 33q6 1 22 10.5t26 7.5q4 5 12 5h20l-1 -11q-20 3 -23 -1z" />
    <glyph glyph-name="D" unicode="D" horiz-adv-x="501" 
d="M376 131q-8 -3 -21.5 -18.5t-25.5 -16.5q-36 -32 -121 -65q-6 -13 -22 -14.5t-21 -6.5l-74 -18q-47 -11 -80 -11q-25 0 -44 6q-6 4 -3 17q26 -4 72 10q2 7 -2 19q-5 16 -5 19q14 118 45 250q9 17 16 48q8 37 13 49q-1 5 12 46q7 23 -15 24q-30 33 -30 43q0 4 1 8
q7 8 21 8q9 0 21 -3q2 -1 5 -1h1l6 6q9 9 11 10q7 5 16 6q20 -3 33 -36q-1 -3 -1 -6q0 -4 4 -5h9q2 0 9 2q12 -9 46 -12q126 -25 192 -100q34 -38 34 -88q0 -38 -22 -72q-13 -26 -80 -98zM431 327q-1 7 -6 21q-25 38 -120 78l-68 14q-40 8 -70 6q-7 -38 -27 -106
q-22 -73 -29 -106q-8 -16 -8 -26q0 -4 1 -7q-6 -23 -13 -79q-7 -50 -18 -77q6 -14 5 -21h2q36 0 93 26l90 42q11 11 33 25q26 16 34 23q97 79 108 165q-5 7 -7 22z" />
    <glyph glyph-name="E" unicode="E" horiz-adv-x="395" 
d="M334 514q-49 -5 -85 -19q-22 0 -27 -6q-5 -19 -25 -37q-12 -11 -28 -32q-10 -24 -31 -60l-20 -50q6 -2 11 -2t21.5 6t24.5 7q22 3 32 10q14 4 166 61l41 -4q-33 -33 -48 -33q-19 -18 -57 -33q-53 -21 -61 -26q-21 -5 -64 -26q-27 0 -86 -23q-39 -82 -39 -150q0 -14 2 -26
q13 -48 45 -51q50 -4 105 36l102 77q1 -20 -13 -39q-4 -5 -29 -30q-78 -93 -168 -87q-77 28 -90 81q-10 77 7 120q10 25 22 69q-20 9 -19 34q6 6 20 10.5t18 7.5q1 15 16 42t16 42q8 3 10 12.5t5 12.5q15 26 48 75q-2 2 -31 8l-11 17q-1 4 -1 7q0 23 53 22q35 -1 43 1
q93 19 170 19q51 0 97 -8l6 -14q-29 -9 -148 -21z" />
    <glyph glyph-name="F" unicode="F" horiz-adv-x="392" 
d="M498 579h-6q-9 -2 -16 4q-9 -1 -41 -9q-26 -7 -42 -5q-17 -1 -50 -13q-16 1 -46 -5.5t-44 -6.5q-6 -5 -17 -5h-6q-10 2 -16 -7l-67 -213q-8 -9 -12 -29q-6 -24 -9 -31q3 -3 17 -1q17 3 19 2q20 7 60 11t58 9q27 8 53 8q28 0 54 -9q-2 -13 -6 -14t-17 -3q-5 0 -8 -4
l-154 -37q-21 1 -41 -12q-5 1 -12 1q-12 0 -31 -4l-10 -12q-28 -103 -28 -136q0 -11 2 -21h1q8 0 10 2q6 5 14 5q-1 -34 -31 -52q-18 -4 -32 12q-11 9 -7 32q1 7 1 13q0 12 -5 17l27 127q-15 2 -32 5.5t-18 17.5q-1 22 22 27q33 0 45 8q5 8 7 32q2 20 13 32q28 84 39 121
q21 70 29 120l-13 24q23 14 56 11q38 -3 54 1q12 1 101 16q60 10 102 10q15 0 29 -1q1 -2 12 -11q8 -6 8 -12q0 -8 -8 -16q-4 1 -8 1z" />
    <glyph glyph-name="G" unicode="G" horiz-adv-x="357" 
d="M285 -30l2 -2q4 -3 4 -6q0 -2 -2 -5q-7 -7 -17 -7q-7 0 -15 3q-14 10 -14 32q0 11 5 33t5 33q1 3 5.5 13.5t4.5 14.5q-109 -99 -207 -99q-10 0 -20 1q-92 44 -91 102q1 62 38 137q2 4 71 124q21 29 58 89q13 10 32 36t33 36q3 10 16.5 20t16.5 15q67 64 131 71
q3 -3 22 -9q14 -4 16 -15q0 -12 -6 -23q-10 -5 -22 -5q-5 0 -18 1t-18 0q-9 -2 -17 -10q-17 -5 -45 -33q-17 -9 -39 -37q-24 -31 -38 -40q-20 -26 -68 -95l-63 -109q-51 -90 -51 -141q0 -52 41 -74q13 -3 28 -3q49 0 138 52q28 17 84 69q1 6 11 39q8 28 8 44q0 14 -6 23
q-65 -11 -104 -50q-24 -4 -36 17q8 24 35 38l46 25q48 14 52.5 15.5t9.5 1.5q6 0 15 -5q6 -1 7 -1q2 -4 17 -17q12 -11 12 -38q0 -41 -17 -88q-11 -27 -32 -83q-1 -10 -11 -46q-9 -31 -7 -44z" />
    <glyph glyph-name="H" unicode="H" horiz-adv-x="401" 
d="M116 231q-13 -1 -36 -10q-3 -13 -12 -25l-18 -67q-11 -43 -24 -65q-6 -23 -6 -35q0 -14 7 -21.5t7 -11.5q0 -3 -2 -7q-11 -7 -20 -6q-10 3 -20 5q-9 23 -9 48q0 32 18 91q22 72 26 93q7 3 5 6q-5 7 -5 9q-33 13 -28 36q9 9 20 9q3 0 10 -1t10 -1q8 0 12 13q8 27 40 108
l33 156q4 9 33 14l29 -22q-9 -7 -10 -13q-2 -9 -4 -12q-7 -42 -27 -88q2 -16 -8 -40q-11 -28 -12 -39q-12 -26 -26 -78q55 7 217 40q4 3 9.5 16t9.5 17q23 67 74 197q4 3 9.5 15.5t12.5 16.5q5 26 22 22q15 0 24 -20q3 -3 7 -9q-19 -20 -33 -57q-15 -41 -27 -58
q-6 -26 -43 -112q-5 -6 -5 -25t-10 -24q-53 -134 -53 -215q0 -38 10 -70q2 -1 7 -1h2q16 0 12 -14q-2 -8 -24 -13q-4 0 -9 -2q-47 40 -47 113q0 46 17 107l21 75q-30 -4 -73 -16l-72 -20q-5 0 -11.5 -6t-13.5 -6q-6 0 -16 3z" />
    <glyph glyph-name="I" unicode="I" horiz-adv-x="216" 
d="M209 465q-3 -7 -9 -23q-5 -7 -10.5 -27t-15.5 -29l-41 -147q-22 -82 -23 -151q-12 -20 -12 -47q0 -21 7 -41q8 -6 5 -26q-24 -1 -37 20q-4 7 -16 43q2 31 12 110q23 147 75 300q5 14 19.5 37.5t19.5 34.5q10 11 35 11q13 -10 13 -25q0 -10 -6 -23q-10 -6 -16 -17z" />
    <glyph glyph-name="J" unicode="J" horiz-adv-x="219" 
d="M185 347q-18 -122 -64 -227q-9 -34 -48 -109q-9 -19 -68 -84q-6 -12 -22 -27q-19 -18 -24 -25q-74 -37 -92 -37q-13 0 -25 6l2 10q61 12 107 64q24 27 38 45q22 28 30 50q84 110 123 407q2 51 13 154q2 17 18 21q6 3 11 3q8 0 23 -13l8 -13l-23 -178z" />
    <glyph glyph-name="K" unicode="K" horiz-adv-x="427" 
d="M88 173q-19 -65 -46 -202q3 -6 3 -13q0 -5 -1 -9q-7 -12 -18 -12t-22 12q10 79 40 207q37 158 45 205q-1 7 5 19.5t6 18.5q0 4 -2 7l32 148q14 20 12 31l-6 8q16 14 34 14q8 0 17 -3l5.5 -11t4.5 -14q0 -6 -5 -12q-12 -21 -22 -69t-23 -69q2 -5 2 -10q0 -9 -8 -26.5
t-8 -23.5q0 -5 3 -9q71 41 77 45q44 28 72 53l135 84q6 2 11 2q8 0 27 -19q-1 -19 -23 -36q-29 -6 -79 -38l-74.5 -50t-50.5 -31q-28 -19 -46 -36q-28 -13 -34 -26q-10 -23 -10 -44q0 -41 41 -81l76 -63q33 -29 68 -31q4 -6 20 -10q4 -2 16 -7q-25 -14 -49 -7q-26 8 -33 7
q-110 46 -178 145q-4 -4 -5.5 -19.5t-8.5 -24.5z" />
    <glyph glyph-name="L" unicode="L" horiz-adv-x="302" 
d="M261 20q-4 -6 -9 -7h-11q-5 -1 -8 -7q-5 -2 -49 -15q-10 -7 -35 -11.5t-35 -12.5q-19 -1 -37 -1q-23 0 -30 16q-36 8 -31 69q8 104 44 220l69 215q-5 4 -5 10q0 9 9 19q1 4 8 26q4 14 20 19q8 0 26 -19q1 -2 9 -7q-4 -20 -19.5 -61.5t-18.5 -64.5q2 -5 -3 -8v-1l-2 -1
q-14 -11 -22 -45l-8 -53l-6 -5q-10 -26 -21.5 -82t-22.5 -83q-3 -19 -8 -68q-4 -35 14 -52q34 4 95 22q87 26 135 31l21 -16q-43 -26 -69 -27z" />
    <glyph glyph-name="M" unicode="M" horiz-adv-x="592" 
d="M156 470l-96 -309q2 -15 -8 -44q-14 -41 -15 -46q-19 -44 -28 -97q-15 -9 -36 3q-2 1 -13 3q3 28 21 73q20 49 24 71q6 31 26 87.5t28 87.5q12 47 45 143q32 93 44 143q24 10 26 11q19 0 28 -24q7 -17 6 -39q4 -3 5 -12.5t5 -12.5q-6 -36 -8 -129q-2 -78 17 -106
q24 13 53 39l50 44q9 12 26 26l28 23q83 82 94 91q54 51 100 84q22 16 40 0q4 -7 4 -16q0 -5 -2.5 -18.5t-1.5 -21.5q-69 -200 -116 -381q-1 -6 -7 -35q-5 -21 -5 -35t5 -24q-7 -19 -31 -55l-5 5q-12 12 -24 7l-8 18q25 151 133 487q0 6 -3 3q-19 -12 -42 -36l-38 -41
q-5 -4 -29 -26l-118 -107q-6 -13 -27 -28.5t-26 -22.5q-15 -8 -43 -27q-54 1 -67 56q-4 48 -9 96q4 16 4 19q0 6 -5 12q2 9 2 22q0 16 -3 39z" />
    <glyph glyph-name="N" unicode="N" horiz-adv-x="482" 
d="M552 535q-2 -3 -1 -12q-11 -3 -18 -23q-4 -12 -12 -17q-2 -8 -20 -53q-13 -33 -14 -54q-6 -21 -27 -59q-4 -23 -7 -28q-4 -15 -13 -26q-16 -57 -58 -177q-10 -43 -42 -93q-12 4 -35 13q-59 79 -91 244q-9 24 -12 95q-5 18 -7.5 53.5t-6.5 52.5h-1l-49 -164
q-8 -20 -20 -75q-11 -48 -25 -73q2 -5 2 -11q0 -13 -13 -41t-14 -41t-10.5 -43.5t-8.5 -47.5q-9 -19 -25 -19q-26 0 -26 20q0 4 4 20q3 13 1 19q33 95 88 278q57 190 87 278q9 6 19 6q26 0 18 -1q9 -12 22 -20q-4 -61 11 -99q-2 -15 -2 -32q0 -22 4 -60q5 -44 6 -59
q25 -141 70 -216q-2 7 9 20q3 19 18.5 55t18.5 55l65 186q39 102 87 176q18 10 22 10q16 0 16 -15z" />
    <glyph glyph-name="O" unicode="O" horiz-adv-x="463" 
d="M443 356q0 -3 1 -9t1 -9q-2 -4 -7 -9q-12 -59 -68 -133q-6 -5 -19 -33q-88 -89 -117 -112q-76 -60 -144 -60q-9 0 -18 1q-15 4 -40 21q-67 31 -67 108q0 89 90 223q2 4 47 70q56 81 143 131q63 18 87 18q23 0 39 -11h14q64 -70 64 -151q0 -20 -4 -41q-2 -2 -2 -4z
M330 512l2 -4l-12 -12q-3 12 -9 13q-22 0 -52 -22q-22 -17 -39 -21q-176 -180 -201 -342q0 -90 75 -90q57 0 126 63q51 38 57 54q43 43 68 82q53 83 53 169q0 30 -7 56q3 8 -6.5 16.5t-9.5 14.5l-18 16q-9 8 -19 8q-4 0 -8 -1z" />
    <glyph glyph-name="P" unicode="P" horiz-adv-x="393" 
d="M442 459q-13 -12 -33 -38q-17 -11 -41 -40q-8 -3 -20.5 -15t-18.5 -15q-15 -7 -69 -44q-44 -29 -73 -39l-80 -42q-18 -55 -41 -166q9 -8 9 -20q0 -8 -11 -37l-7 -21q-2 -1 -12 -9q-5 -5 -14 -2q-3 7 -12 10q-14 2 -13 16q-2 12 5 38.5t7 37.5q0 6 -1 11q11 36 26 109
q-3 2 -7 2q2 0 -34 -11q-2 8 -2 14q0 18 15.5 23t45.5 27q0 16 12 44.5t14 43.5q1 8 14 39q9 23 9 39q0 7 -1 14q8 3 10.5 16.5t9.5 17.5q0 4 6 24q5 14 5 24q-25 -6 -70 -27q-24 5 -28 7q-15 6 -15 20q-2 17 22 25q17 0 48 11t46 12q76 21 121 28q161 6 197 -80
q0 -24 -19 -47zM288 538q-46 3 -84 -17q-26 -60 -24 -78q-17 -26 -13 -43q-19 -40 -46 -124l20 6q5 6 24 15t25 17q16 7 59 36q36 24 61 31q9 13 42 47l33 33q18 20 22 42q-15 27 -54 31q-22 1 -65 4z" />
    <glyph glyph-name="Q" unicode="Q" horiz-adv-x="508" 
d="M508 -34q-22 15 -70 63q-42 42 -73 57q-25 -26 -58 -53q-41 -55 -123 -55q-15 0 -29 2l2 11q-90 9 -114 109q-23 -8 -47 -38q0 -13 -3 -15q-14 -14 -28 -3l-5 4q-6 5 -18 4q-2 21 14 38q25 26 28 32q30 18 58 37q2 19 13 51q12 36 15 50q20 52 52 97l63 89l70 56
q46 33 77 40q27 6 53 6q32 0 47 -13q35 -16 44 -35q0 -12 -17 -27q-6 1 -9 0q1 -6 9 -26q7 -15 6 -26q11 -39 11 -76q0 -51 -21 -90q0 -4 1 -13t-6 -14q-13 -61 -49 -94q-2 -3 -5 -11q27 -20 72.5 -67.5t71.5 -66.5q42 -10 78 -22q-40 -14 -68 -14t-42 13zM291 447
q-23 -26 -28 -30q-2 -13 -28 -48q-15 2 -21 24q-9 -8 -26 -22q-45 -73 -46 -77q-25 -41 -31 -83q-6 -5 -8 -18q38 7 75 7q84 0 153 -37q1 -1 13 -2.5t14 -9.5h1q2 3 6 8q59 94 59 191q0 73 -37 121q-24 8 -37 8q-14 0 -28 -6.5t-31 -25.5zM271 132q-44 19 -92 19
q-87 0 -86 -40q1 -35 28.5 -64t62.5 -29q57 0 141 92q-35 22 -54 22z" />
    <glyph glyph-name="R" unicode="R" horiz-adv-x="408" 
d="M439 391q-3 -10 -32 -42q-41 -34 -104 -78l-46 -28q-24 -12 -84 -31q-5 -1 -26 -11q-11 -3 -11 -12q30 -19 82.5 -71t82.5 -70q17 -10 65 -23q14 -4 38 -5q21 -1 49 -5q-15 -15 -46 -25q-73 -5 -136 33q-43 26 -101 87q-7 3 -41 27q-24 17 -44 22l-2 -3q0 -10 -9 -41
q-8 -27 -5 -39q2 3 12 22q7 13 25 13q3 -21 -12.5 -49.5t-15.5 -41.5q-8 -15 -34 -39q-34 7 -34 42q0 15 10 52q9 34 8 50q11 24 8 40h-72q-1 9 -11.5 15t-10.5 12q0 5 3 12q34 21 103 19l4 3q1 10 9 37q7 23 6 37l12 21q23 70 59 212q-15 5 -15 25q-2 10 9 17q9 4 18 9
q9 -9 31 -14q12 -3 31 -15q33 -4 98 -20q81 -32 95 -41q48 -31 49 -89zM261 494q-6 -2 -12 -2q-9 0 -25 5.5t-23 5.5t-13 -3q-3 -11 -12.5 -33.5t-7.5 -38.5h-5q-5 -21 -24 -74q-17 -48 -19 -76q-1 -5 -10.5 -21.5t-8.5 -24.5q38 6 112 42q65 32 106 60q13 9 72 68
q8 16 8 28q0 9 -5 15q-49 27 -133 49z" />
    <glyph glyph-name="S" unicode="S" horiz-adv-x="342" 
d="M346 556q-6 -11 -29 -28l-3 11q-5 -8 -10 -8q-4 0 -12 11l-2 1q-4 1 -9 1q-10 0 -26.5 -8t-24.5 -9q-39 -29 -52 -42q-26 -25 -37 -55q-10 -2 -22 -27q-3 -14 -3 -26q0 -42 44 -72q21 -14 79 -49l46 -46q26 -31 26 -56q0 -19 -12 -39q-30 -39 -84 -70q-30 -18 -100 -48
q-11 1 -21 -7q-29 -3 -53 -3q-53 0 -81 15l-4 18q9 4 16 4q5 0 15.5 -3.5t17.5 -2.5q113 -5 238 98q28 23 23 52q-6 20 -55 61q-65 40 -97 71q-44 23 -44 79q0 13 3 27q20 59 65.5 107t103.5 72q22 9 51 9q56 0 56 -22q0 -2 -1.5 -7.5t-1.5 -8.5z" />
    <glyph glyph-name="T" unicode="T" horiz-adv-x="562" 
d="M682 616q-14 8 -35 8q-17 0 -66 -11q-30 -1 -140 -32q-83 -23 -186 -48q-12 -3 -17 -17q-8 -22 -10 -24q-54 -256 -116 -496q-13 -16 -27 -4q-5 4 -15 20l46 194q27 116 39 197q8 10 11 33.5t7 32.5q7 35 7 29q1 6 -5 16l5 5l-2 2q-33 -4 -62 -4q-55 0 -92 14q-1 2 -5 11
q-2 2 -7 2q-1 7 -10.5 17t-8.5 21q16 14 25 14q19 0 51 -30q32 -1 57 -1q43 0 65 4q9 9 9 26q0 4 -1 11v12q0 29 35 31q13 -6 18.5 -25t10.5 -22q5 -20 32 -13q41 10 78 23q40 4 106 20q23 6 102 21q8 1 35 6.5t40 5.5q42 0 52 -36q0 -11 -10 -15q-3 -1 -7 -1q-5 0 -9 3z
" />
    <glyph glyph-name="U" unicode="U" horiz-adv-x="417" 
d="M284 203l-49 -79q-9 -8 -24 -31.5t-27 -32.5q-56 -93 -126 -103q-58 22 -64 69q3 109 48 255q13 42 88 246q5 6 13 32q6 20 21 28q20 2 33 -8q3 -13 8 -39q-15 -12 -28 -43q-14 -34 -24 -45q-5 -23 -31 -85q-22 -51 -25 -87l-7 -4q-44 -162 -44 -222q0 -26 5 -47
q2 -5 11 -5q8 -1 16 5q52 39 134 168q17 21 40.5 65.5t36.5 62.5q52 98 105 280q27 19 41 11q13 -7 13 -21q0 -9 -9.5 -31t-9.5 -31q-5 -21 -62 -198q-38 -118 -48 -201q14 -5 14 -22q0 -7 -16 -52q-1 -3 -19 -18q-9 -3 -13 1l-9 6q-2 0 -11 -2q-2 71 19 178z" />
    <glyph glyph-name="V" unicode="V" horiz-adv-x="422" 
d="M442 494l-7 -21q-14 -29 -38 -92q-10 -12 -19 -34q-3 -8 -16 -37q-14 -32 -74 -146l-5 -20q-9 -1 -12 -13l-4 -8q-19 -20 -56 -78q-33 -52 -63 -74q-33 0 -47 21q-9 14 -16 48.5t-16 48.5q-12 68 -19 205.5t-19 205.5q2 20 19 20q17 -2 21 -4q11 -4 14 -15q12 -42 3 -77
q5 -10 6 -29q1 -27 2 -30q-7 -13 -7 -26q0 -9 5 -26.5t5 -26.5q0 -7 -2 -14q3 -7 2.5 -24.5t3.5 -23.5q-3 -115 38 -195q72 75 138 213l53 114q20 33 43 97q24 71 39 99q6 7 16 7q7 0 16 -3q9 -10 9 -22q0 -13 -13 -40z" />
    <glyph glyph-name="W" unicode="W" horiz-adv-x="601" 
d="M590 468q-9 -27 -12 -35q-9 -21 -19 -33q-2 -5 -38 -124q-29 -94 -61 -170l-30 -71q-7 0 -16 -8t-18 -6q-19 17 -55 90q-5 19 -14 47q-17 55 -24 127q-4 47 -8 74q-6 -3 -11 -15q-6 -15 -9 -18q-24 -66 -74 -177q-23 -51 -36 -76q-22 -45 -42 -72q-3 -1 -16 -6
q-9 -4 -15 -4q-4 0 -9 1q-39 63 -39 111q0 10 1 19q-4 24 -6 152q-2 94 -21 148q-2 2 -2 9q0 6 1 15q6 1 18 8t21 0q5 -6 7.5 -26.5t7.5 -26.5t5 -15q0 -4 -1 -11.5t-1 -11.5q0 -8 4 -13q-2 -15 0 -37q3 -31 3 -37q0 -12 -2 -22q3 -19 1 -48q-3 -39 -2 -49q2 -8 10 -58
q6 -36 16 -56q69 121 133 255q7 22 26.5 63t26.5 62q10 3 19 3q25 0 27.5 -23.5l7.5 -71.5q5 -44 4 -74q1 -2 22 -89q13 -54 35 -85q4 7 51 129q77 198 159 354q5 1 16 -2h13q-16 -37 -23 -51q-14 -28 -31 -45z" />
    <glyph glyph-name="X" unicode="X" horiz-adv-x="416" 
d="M366 -10q-4 4 -8 6q-20 24 -64 65t-63 62q-15 6 -33 32q-21 29 -31 36q-3 8 -19 20q-23 -15 -62 -69q-25 -22 -100 -122q-6 -5 -21 -36q-12 -25 -29 -25q-22 0 -22 15q0 5 7 15.5t8 14.5q27 37 79 102q16 26 35 45q0 12 11 16q22 28 70 83q3 13 -14 25q-76 123 -67 230
q7 15 31 17q19 -3 19 -22q0 -5 -1.5 -14.5t-1.5 -14.5q0 -9 5 -15q5 -84 60 -162l3 -3q40 37 89 96l84 101l11 6q9 4 14 4q15 0 15 -15q0 -5 -18 -31q-28 -33 -84 -106l-82 -86l-4 -16q47 -51 134 -161q35 -33 64 -88q-8 -8 -15 -5z" />
    <glyph glyph-name="Y" unicode="Y" horiz-adv-x="354" 
d="M-49 -38v-3h-14q4 19 22 29q14 8 15 18q36 28 68 64l60 71q12 13 29 43q9 9 21 28q-15 24 -13 35q-10 12 -30 69l11 4q-17 48 -26 120q-7 62 -13 123q3 10 17 28q4 1 8 1q13 0 21 -15l2 -3q1 -2 3 -5q-1 -19 4 -118q6 -128 44 -195q45 52 96 157q8 17 44 79q9 22 22 67
q16 8 24 8q16 0 16 -23q0 -8 -18 -45q-6 -11 -6 -22q-9 -4 -9 -11q-2 -10 -7 -15h-1q-10 -22 -69 -131l-43 -62q-1 -3 -23 -32q-12 -16 0 -28l-3 -12q-15 -8 -42 -29q-28 -29 -81 -93q-15 -10 -59 -57q-34 -36 -70 -45z" />
    <glyph glyph-name="Z" unicode="Z" horiz-adv-x="539" 
d="M462 315q-122 -90 -334 -218l-49 -28q-26 -15 -42 -37q6 -3 21 -2q39 3 128 20l164 32q88 16 167 13q12 0 12 -13q0 -10 -6 -20l-65 -8q-84 -10 -161 -24q-7 -6 -23.5 -6t-21.5 -5q-6 -1 -106 -24q-65 -15 -106 -15q-42 0 -72 27q-2 26 19 45l40 31l251 151q34 21 53 34
q74 51 93 66q51 39 82 78q-29 12 -99 11q-99 -1 -180 -17q-9 -6 -39 -8q-26 -1 -36 -12q-28 0 -157 -11q-8 4 -8 15q0 9 6 22l17 16q75 0 192 18q151 23 189 25q135 7 165 -43q-7 -36 -38 -64z" />
    <glyph glyph-name="bracketleft" unicode="[" horiz-adv-x="285" 
d="M403 700q1 -2 12 -11q8 -6 8 -12q0 -8 -8 -16q-3 1 -8 1h-6q-5 0 -20 -2l-41 -6q-52 -7 -62 -7h-6q-10 1 -16 -7q-14 -42 -80 -258q-8 -9 -12 -28q-6 -30 -15 -52q-3 -8 -4 -10l-58 -225q-7 -24 -20 -74q-4 -18 -14 -55q-4 -13 -4 -27q0 -3 -6.5 -29t-6.5 -29q6 0 10 -3
l17 -1q22 -1 68 -4q16 -1 19 -1q6 6 15 6l6 1q5 0 8 2q8 -7 10 -15q1 -6 -5 -12.5l-12 -12.5l-28 -6l-67 -3h-15q-11 -4 -39 -5q-14 0 -24 13q-11 9 -8 31q5 21 12 64q1 10 -1 12q22 97 41 173l10 40q9 38 13 42q6 11 7 32q0 -3 13 36q8 24 23 73q4 16 7 26q0 5 -1 7l35 121
q15 42 41 127q2 12 7 33l13 54q22 14 46 11q9 -1 26 0q7 1 45 4q28 3 46 3h15q7 0 14 -1z" />
    <glyph glyph-name="backslash" unicode="\" horiz-adv-x="694" 
d="M192 -54q8 3 15 3q13 0 35 -11h-56q-4 -2 -11 -2l-29 7q-17 4 -29 3q-51 22 -67 62q-16 28 -16 69q0 21 5 42q3 14 14 38q8 11 18 32q32 42 77 72l22 15q22 14 85 39q8 0 24.5 8.5t26.5 7.5q3 2 33 10q6 6 20 8h4q6 0 10 5q6 0 20 3.5t21 2.5q18 4 55 8q10 4 30 4.5
t29 3.5q141 0 144 -76q1 -29 -20 -60q-29 -42 -32 -53q-31 -39 -70 -60q-2 -1 -19 -15q-5 1 -7 -1l-3 -4q-33 -22 -92 -48q-72 -32 -94 -45q-7 0 -20.5 -6.5t-18.5 -7.5q-8 -1 -30 -11q-18 -8 -30 -8q-15 -7 -39 -7h-40q-47 17 -51 69q-3 36 10 102q4 2 8 16q0 3 4 9
q17 26 57 72l29 26q-10 -6 -37 -20q-16 -13 -50 -38v-1q0 -3 -2 -5l-20 -21q-18 -18 -19 -20v-10q0 -8 -9 -14q-3 1 -5 -4l-1 -2q1 -6 -7 -17q-2 -28 -2 -38q0 7 1 -18v-19q14 -34 28 -46q4 -5 47 -29q6 -1 18 -3.5t18 -3.5l5 -5q2 2 6 2q3 0 7 -1q1 -5 0 -9zM640 279
q3 11 3 19q0 33 -56 40q-24 8 -54 6h-6q2 -1 5 -2q86 -9 108 -63zM453 318q23 -12 19 -43q-2 -2 -3 -2l-2 -1q-3 -3 -10 -3q-8 14 -42 24q-27 -1 -125 -27q-3 -4 -12 -9l-3 -1q-2 -1 -6 -6q-45 -18 -79 -59t-46 -89q0 -4 -1 -13t-1 -13q0 -13 7 -20q15 -11 44 -7
q32 4 112 26l2 2q9 5 13 4q24 8 69 28q5 -1 28 10q6 5 24 11t24 12q77 33 140 92q12 11 9 20q0 56 -161 64zM332 50l-11 -4q-21 -5 -62 -22q-8 -2 -49 -9q-28 -5 -61 3q5 -3 8 -8q13 -4 28 -4q28 0 70 15l67 24z" />
    <glyph glyph-name="bracketright" unicode="]" horiz-adv-x="320" 
d="M-92 -191l-11 10q-8 7 -7 13q0 8 8 16q2 -1 7 -1h5q-3 0 57 6t57 6l6 -1q9 -2 15 7l35 110l46 146q8 10 12 27.5t15 52.5q3 7 4 9l60 223l21 74q4 18 14 55q4 12 4 26q0 -1 8 29q6 26 6 29q-6 0 -9 3q-4 0 -79 8q-15 1 -18 1q-4 -6 -13 -6h-6q-5 0 -7 -2q-8 7 -10 15
q0 2 17 25q9 1 26 5q9 1 21 1h55q10 4 36 4q11 0 22 -14q10 -10 6 -31q-5 -21 -12 -64q-1 -10 0 -12q-22 -98 -42 -171l-18 -69q-4 -12 -6 -13q-6 -11 -7 -32q0 2 -3 -8l-21 -63q-7 -21 -11 -36l-7 -26q-1 -5 -1 -8q-11 -40 -37 -120t-39 -126q-6 -20 -8 -33l-14 -53
q-20 -13 -42 -10q-8 1 -24 0q-15 0 -30 -1l-31 -2q-15 -1 -24 -1h-13q-7 0 -13 2z" />
    <glyph glyph-name="asciicircum" unicode="^" 
d="M434 335q-17 -21 -28 -21q-13 0 -17 31q-4 45 -11 114q-14 141 -55 230q-66 -51 -103 -146q-6 -3 -11 -17.5t-11 -18.5q0 -14 -16 -33q-8 -12 -35 -39q3 -3 3 -4q0 -4 -12 -3l9 7l-10.5 8.5t-5.5 14.5q0 24 28 78q42 82 77 131q12 8 31 33.5t32 33.5q20 12 51 -1
q20 -29 33.5 -87t24.5 -84q1 -7 1 -8q-1 -12 7 -16l-2 -18q14 -99 18 -149q1 -4 2 -36z" />
    <glyph glyph-name="underscore" unicode="_" horiz-adv-x="365" 
d="M363 3q-49 1 -143 -7q-111 -9 -172 -24q-20 3 -36 19q7 19 24 21q27 3 31 4q80 21 236 21q31 0 57 -6l10 -11q0 -8 -7 -17z" />
    <glyph glyph-name="grave" unicode="`" horiz-adv-x="55" 
d="M45 487l-19 1q2 6 2 11t-2 9q-3 11 -3 16q-1 11 -7 31l-7 41q-3 16 1 20q2 1 3 2l1 1q4 2 9 2q3 0 7 -1q6 -11 9 -28q3 -13 5.5 -28.5t4.5 -44.5q1 -17 -4 -32z" />
    <glyph glyph-name="a" unicode="a" horiz-adv-x="219" 
d="M175 -10q-13 -1 -42 16q-1 8 -8 27t-7 30q-8 -9 -11 -16q-37 -46 -43 -52q-29 -25 -62 -20q-27 21 -27 62q0 71 14 108q35 96 139 169h16q23 0 23 -27q0 -9 -6 -36q-5 -13 -22 -34q-3 -7 -24 -14q5 26 16 40q1 3 5 16q1 2 1 6q0 3 -1 7q5 4 5 7q-6 1 -21 -17
q-3 -2 -10 -9q-103 -118 -105 -214q4 -29 18 -32q34 9 59 52q28 25 50 90q11 25 41 127q4 9 22 15q9 -10 9 -22q0 -7 -4 -19q-4 -15 -5 -20q-40 -110 -40 -146q0 -47 19 -64q4 1 25 13q18 10 22 10q1 -5 1 -10q0 -19 -11 -24t-36 -19z" />
    <glyph glyph-name="b" unicode="b" horiz-adv-x="264" 
d="M194 258q0 10 8 10q7 0 7 -10h-15zM78 196l3 5q1 3 1 4q5 6 24 37q14 23 29 34q29 56 93 49q38 -16 40 -71q3 -84 -53 -163q-31 -58 -122 -96q-24 -10 -50 -10q-55 0 -63 57q16 -4 32 -18q10 -9 21 -8q59 4 107.5 43t70.5 96q24 61 24 87q0 17 -6 31q-5 3 -7 13q2 1 0 1
q-6 3 -12 3q-10 0 -22 -8q-25 -17 -43 -49q-31 -41 -51 -77l1 -1l-4 -11q-4 1 -5 -1l-1 -3q-3 -8 -7 -10q-6 -12 -24 -35q-1 -3 -18 -18q-15 -2 -20 6t-4 23q0 3 1 6v5q82 220 111 348q8 6 17 6q11 0 17 -11q2 -12 -5.5 -36t-7.5 -34q-5 -16 -17 -44l-18 -60
q-11 -29 -32 -90z" />
    <glyph glyph-name="c" unicode="c" horiz-adv-x="216" 
d="M211 41q-6 -6 -23 -20q-38 -32 -88 -32q-26 0 -50 11q-39 25 -39 97q33 161 119 209q34 -6 43 -35q2 -6 -2 -12t-11 -6q-3 0 -7.5 3.5t-8.5 3.5q-2 0 -5 -1q-4 -4 -25 -23q-15 -14 -19 -27q-11 -14 -25 -51q-14 -19 -17 -48v-51q10 -34 42 -34q26 0 111 44l1 1q6 6 19 2
q0 -19 -15 -31z" />
    <glyph glyph-name="d" unicode="d" horiz-adv-x="303" 
d="M168 67l-49 -66q-32 -36 -67 -36q-15 0 -31 6q-24 21 -24 56q0 23 7 51q4 30 29 115q5 18 26 52l25 41q19 30 46 30q16 0 43 -34q1 -8 7 -16q8 48 35 140q0 7 18 56q6 11 17 11q18 0 25 -18q3 -87 -27 -201q-8 -29 -32 -76q-14 -27 -14 -62q0 -36 14 -65q10 -12 22 -12
q6 0 12 4q14 5 29 21l23 27q7 8 28 19q2 -9 2 -16q-2 -7 -14 -36q-30 -31 -36 -36q-23 -19 -45 -19q-10 0 -21 4q-31 18 -48 60zM167 188q-2 8 5 38q-15 5 -26 22l-5 8q-5 9 -12 13q-30 -33 -58 -93l-1 -10q-12 -14 -24 -70q-7 -56 -7 -65q0 -13 3 -25q1 -5 13 -5
q55 26 105 123q-1 9 6 45q1 5 1 19z" />
    <glyph glyph-name="e" unicode="e" horiz-adv-x="234" 
d="M224 50l-3 -3q-5 -3 -4 -10q-80 -60 -128 -64q-27 -1 -53 10q-22 12 -30 32q-7 16 -10 53q31 158 150 247q4 1 23 4q16 3 26.5 -6t10.5 -25q-2 -13 -3 -25q-17 -58 -116 -134q-6 -5 -33 -10q-16 -3 -15 -18q-13 -22 -11 -41q0 -8 8 -30q17 -24 55 -24l4 3q16 0 44 11
q28 17 89 48q1 -4 1 -7q0 -6 -5 -11zM166 268q-3 3 -7 6q-53 -33 -92 -110q5 0 11 4l50 46q29 31 38 54z" />
    <glyph glyph-name="f" unicode="f" horiz-adv-x="173" 
d="M217 532q3 -7 8 -13q2 -5 -2 -17q-3 0 -4 -1v-9q-6 -3 -8 -9v-5q-2 -15 -13 -20q-12 -4 -21 8l-2 3q-1 2 -6 5q9 28 22 82l-2 10q-2 -1 -13 -17q1 -18 -11 -19q-45 -98 -74 -178l-2 -12q10 -1 28 4t25 5q16 1 32 -9v-5q1 -2 1 -3l1 -4q1 -2 1 -8q-36 -5 -104 -28
l-42 -165l-24 -83q-19 -68 -19 -80q-6 -9 -5 -26q10 -6 11 -17q0 -4 -4 -23q-2 -1 -6 -10.5t-13 -12.5q-18 4 -30 35q-1 15 4 46q2 9 21 77l18 69t15.5 59t15.5 62q1 11 6 15l9 46q-4 1 -14 -1.5t-13 -2.5q-15 -1 -19 17l-1 21q7 4 17 4.5t31 2t19 22.5q4 9 43 116
q26 72 49 114q19 19 36 34q9 9 20 9q15 1 27 -18q4 -16 4 -30q0 -24 -12 -40z" />
    <glyph glyph-name="g" unicode="g" horiz-adv-x="213" 
d="M143 308q39 5 51 -18q7 -15 7 -57v-48q-7 -6 -9 -15q-5 -11 -12 -31l-3 -8q0 -2 -2 -8q-21 -45 -31 -92q-10 -18 -13 -44q-6 -3 -6.5 -13t-2.5 -13q-35 -127 -46 -156q-57 -153 -132 -153q-8 0 -16 3l-23 23q53 -4 70 31q21 19 34 46q56 116 78 236q-22 -12 -57 -1
q-45 28 -53 63q-7 30 -7 52q0 23 7 41q38 95 82 132q23 14 52 22zM163 262l-2 2q0 6 -4 6q-3 -1 -48 -18q-33 -12 -35 -21q-22 -14 -49 -74q-14 -30 -14 -55q0 -16 6 -38q5 -18 34 -43q21 -6 44 26q20 28 28 65q2 22 19 54l14 25q0 5 -13 11q20 9 20 26v34z" />
    <glyph glyph-name="h" unicode="h" horiz-adv-x="273" 
d="M15 88l96 122q57 71 114 105q14 8 36 0q9 -7 13 -21q4 -17 7 -21q-6 -15 -9 -40q-4 -32 -6 -41l-26 -109q-13 -62 -17 -110q-31 22 -31 55q0 12 3 31q4 24 5 31q2 21 22 91q16 56 13 91q-7 3 -31 -19q-42 -38 -89 -101l-81 -109q-9 -7 -20 -23q-13 -19 -19 -25
q-15 -7 -23 -4q-9 17 -9 36q0 17 10 48t11 46l108 327q-2 13 10 26q-1 11 6.5 20.5t18.5 9.5q10 0 19 -12q3 -32 -13 -63q-25 -49 -32 -83q-4 0 -3 -6q-24 -65 -46 -132z" />
    <glyph glyph-name="i" unicode="i" horiz-adv-x="152" 
d="M129 395l-3 -2q-2 -2 -4 -10q-48 -4 -51 23q0 16 11 20q4 1 24 0q5 0 13 3q8 -3 17 -18q1 -8 -7 -16zM113 41q-9 -15 -30 -43q-39 -24 -57 -23t-40 30q-2 18 -2 36q0 105 31 207q5 16 27 66q6 7 16 7t19 -7t9 -16q0 -5 -3 -9q-18 -29 -34 -76l-22 -104q-7 -33 -3 -83
q2 -6 10 -16q4 -1 12 6.5t11 8.5q12 8 33 31t37 30l23 27q-18 -60 -37 -72z" />
    <glyph glyph-name="j" unicode="j" horiz-adv-x="165" 
d="M164 503q-14 -15 -18 -38q-3 6 -17 17q-11 4 -11 16q1 2 1 21q0 13 11 19q14 7 29 -8l4 -4q3 -4 10 -9q-3 -8 -9 -14zM86 324l2 3q17 1 31 -13q3 -10 0 -32q-2 -14 13 -33q-11 1 -14 1q-4 -1 -3 -6q-16 -107 -49 -233l-48 -179q2 -9 -3 -19q-5 -14 -6 -18q0 -7 -5 -22
t-4 -23l-17 -35.5t-22 -29.5q-20 4 -18 21l19 54q27 97 71 288l28 151.5t15 115.5q-4 10 9 10h1v-1z" />
    <glyph glyph-name="k" unicode="k" horiz-adv-x="255" 
d="M99 155h4q2 -14 -5 -18l-2 -1q-1 -35 33 -72q17 -13 54 -32q7 -16 42 -33q7 0 9 -1l3 -1h6q1 -12 -16 -21q-114 27 -162 115q-1 7 -5 21q-8 -30 -25 -89q-4 -5 -4 -14q0 -4 1 -12.5t1 -13.5q0 -24 -30 -25q-9 14 -9 31q0 11 7 43l73 267q45 164 62 250q7 5 17 5
q17 0 19 -15q0 -13 -15 -54q1 -9 -6 -25t-7 -24.5t-5.5 -25.5t-5.5 -26q0 -5 1 -11q-6 -7 -10 -23q-6 -22 -8 -26q-2 -16 -12.5 -47.5t-12.5 -48.5q21 13 55 46q9 -2 12 4q6 14 19 8q50 11 47 11q8 0 16 -2q8 -8 8 -17q0 -4 -2 -9q-90 -17 -136 -82z" />
    <glyph glyph-name="l" unicode="l" horiz-adv-x="145" 
d="M177 544q-11 -12 -8 -23q-14 -17 -23 -54q-10 -41 -19 -56l-22 -72q3 -7 -3 -13q-1 -4 -21 -75q-13 -43 -16 -75q-6 -8 -7.5 -27.5t-7.5 -26.5q-10 -62 -6 -79q-3 -11 5 -32q10 1 22 11q16 13 20 15q11 6 30 4q-18 -33 -45 -57q-6 0 -15.5 -4t-13.5 -4q-6 0 -14 5
q-20 18 -22 21q-8 14 -8 44q0 14 1 33q2 4 7 33q12 70 23 118q21 98 52 206q8 29 24 64q19 44 20 46q4 12 19 32q9 11 20 11q10 0 20 -12q3 -16 -12 -33z" />
    <glyph glyph-name="m" unicode="m" horiz-adv-x="526" 
d="M73 295q12 -18 12 -48q0 -34 -18 -73q0 -13 -6.5 -41.5t-4.5 -43.5l96 113q53 62 107 98q29 -11 29 -49q0 -7 -2 -31q-2 -19 -1 -30q-12 -40 -32 -124q1 -1 3 0q28 26 67.5 85t62.5 80l53 48q12 9 45 28q16 0 22 -17q3 -37 -13 -85q-25 -70 -27 -82q-21 -110 -19 -149h1
q4 0 13 -4q-2 -13 -11 -19q-1 0 -21 -8q-24 21 -24 62q0 12 2 34.5t2 34.5q7 35 25 91q22 67 28 90h-2q-3 -2 -7 -9t-6 -7q-18 -13 -31 -30q-27 -34 -41 -49l-83 -103q-26 -32 -35 -39q-32 -28 -48 -25q-2 7 0 19q3 17 3 21q0 14 7 65q3 16 17 62q4 11 5 24q0 8 -1 21t-1 17
q0 9 -1 17q-20 -12 -48 -50q-31 -41 -47 -54q-20 -29 -63 -70q-38 -35 -53 -65q-1 2 -7.5 -4t-7.5 -6q-2 1 -5 1q-7 -1 -10 -1q-8 0 -15 5q5 47 30 124q27 84 30 124q-2 25 -11 48q17 15 42 4z" />
    <glyph glyph-name="n" unicode="n" horiz-adv-x="293" 
d="M260 190q-7 -33 -13 -65q-8 -41 -8 -65q0 -44 23 -77q-10 -3 -18 -3q-14 0 -25 9q-19 33 -19 79q0 29 9 73l14 70l-1 2q-38 -29 -86 -101q-51 -76 -81 -104q-14 -6 -25 -6q-6 0 -12 2q-17 13 -9 44q11 43 31 114q18 66 24 116q7 9 17 9t18.5 -11t6.5 -21l-43 -177
q4 11 20 28q51 71 66 89q40 47 83 74q33 0 33 -35q0 -7 -2.5 -22t-2.5 -22z" />
    <glyph glyph-name="o" unicode="o" horiz-adv-x="246" 
d="M214 98q-8 -4 -13 -16q-7 -17 -9 -19q-12 -16 -44 -45q-30 -43 -88 -49q-16 -1 -32 2q-39 19 -50 74q3 32 17 69l26 65q8 9 21 32q13 20 27 28q13 22 41 28q10 -2 33 20q-1 4 5 12q11 1 20 1q15 0 24 -3q41 -29 41 -97q0 -17 -2.5 -35.5t-16.5 -66.5zM177 271l-44 -16
l10 -12q1 -11 2 -32q0 -18 -11 -29q-5 -3 -10 -4q-14 -1 -18 33q-9 -4 -23 -21q-17 -20 -24 -25q-28 -60 -30 -70q-9 -26 -9 -50q0 -12 2 -24q7 -10 30 -12q114 33 151 182q-3 28 -6 50t-20 30z" />
    <glyph glyph-name="p" unicode="p" horiz-adv-x="326" 
d="M82 25q115 43 182 142q1 5 9 21t8 26q0 34 -45 47q-29 5 -57 9q-5 -3 -49 -18q-30 -11 -42 -27q-2 -5 -19 -22q-1 -2 -13 -20q-8 50 -7 59q37 55 121 74q71 3 128 -36q30 -42 30 -71q0 -17 -9 -33q-8 0 -9 -7t-3 -13.5t-10 -8.5q-35 -46 -87 -89q-59 -47 -107 -61
q-20 -6 -26 -10q-12 -8 -10 -26q-9 -43 -32 -129q-6 -6 -9 -32q-13 -49 -48 -154q-2 1 -20 1q-10 -1 -14 11q-1 18 11 49.5t12 47.5q0 6 -1 12q9 13 16 43q8 34 14 45l24 81q12 44 9 85q10 4 14 18q2 11 5 23q-1 17 6 39q8 27 9 36q0 2 3 35q2 22 14 29q10 6 31 -6
q4 -2 12 -4q-3 -8 -11 -44q-5 -30 -14 -40q0 -21 -13 -59q1 -6 -3 -23z" />
    <glyph glyph-name="q" unicode="q" horiz-adv-x="282" 
d="M215 58q-26 -28 -34 -39q-17 -23 -23 -45q-19 -36 -41 -108q30 -3 55 -6l18 -2q9 -1 7 -16q-31 -15 -92 -15q-23 -51 -44 -168q-1 -4 -4 -20.5t-23 -12.5q-3 16 -3 32q0 28 9 65l16 66q5 9 9 38q-20 -2 -50 -2t-70 2q-12 13 -12 23q0 5 4 10q12 14 31 11q19 -6 52 -6
q39 1 52 -1l8 3l44 130l-53 -17q-11 -2 -21 -2q-37 0 -65 28q-13 23 -13 50q0 25 11 45q82 151 194 177l29 -2q41 -3 44 -66q19 -6 19 -28q-15 -82 -54 -124zM193 233q-40 -6 -90 -38q-39 -26 -80 -103q-12 -23 -12 -41q0 -17 11 -28q13 -5 28 -5q35 0 103 37q5 10 36 56
q23 33 23 90q0 8 -2 16q2 12 -17 16z" />
    <glyph glyph-name="r" unicode="r" horiz-adv-x="241" 
d="M83 216q32 42 67 78.5t77 40.5q19 2 35 -6q11 -15 13 -32q0 -9 -8 -55l-14 -2q-3 6 -6 40q-2 19 -9 25q-49 -15 -90 -62l-37 -40q-21 -24 -28 -46q-7 -1 -13 -26q-5 -18 -9 -23q-9 -16 -27 -67q1 -8 0 -33q-4 -21 -20 -26q-4 7 -8 4q-5 -5 -9 -5q-8 0 -14 13
q16 58 70 269q-4 9 -4 15q0 11 14 14q33 6 35 -13q0 -2 -3 -11.5t-2 -24.5q-6 -1 -7 -3q0 -2 1 -10l-3 -9q0 -3 -1 -5z" />
    <glyph glyph-name="s" unicode="s" horiz-adv-x="223" 
d="M43 170q5 -1 4 -1q-1 -1 -2 -1l11 -3q-1 -5 5 -7q1 0 4 -2q2 1 5 1h7q5 -9 26.5 -16t27.5 -14q44 -22 51 -53q0 -21 -20 -45q-4 0 -7 -5t-5 -7q-59 -40 -107 -37q-30 2 -53 19q-8 32 -8 26q0 10 13 19q3 -6 18 -28q7 -11 20 -8q49 12 62 18q36 15 48 41q-3 24 -66 50
q-20 8 -50 23q-25 17 -24 46q10 14 33 32q30 22 37 29q14 10 44 23q14 8 69 29q18 -4 19 -4q11 -4 12 -14q0 -8 -13 -15q-7 -2 -20.5 -8.5t-20.5 -8.5q-3 0 -45 -20q-49 -24 -71 -49q0 -2 -5 -10h1z" />
    <glyph glyph-name="t" unicode="t" horiz-adv-x="252" 
d="M174 302q21 -3 42 -5q24 -5 39 -19l1 -19q-16 -1 -57 2q-25 2 -43 -4q-65 -125 -62 -209q0 -12 3.5 -22.5t20.5 -10.5q10 0 24 4q11 1 35.5 16t46.5 16q-18 -54 -92 -73q-9 -2 -16 -2q-27 0 -42 17q-18 29 -19 69q-2 55 28 131q10 18 23 57q-35 -1 -60 -33q-18 -1 -28 32
q2 11 24 24q15 13 40 18q22 3 44 7q47 92 65 174q7 10 15 10q13 1 25 -19q-3 -69 -54 -159q-2 -1 -3 -2z" />
    <glyph glyph-name="u" unicode="u" horiz-adv-x="312" 
d="M295 50q-13 -11 -31 -29q-26 -15 -44 -15q-27 0 -37 35q-2 3 -4 13q-4 16 -8 16q-1 0 -59 -63q-37 -33 -95 -41q-28 32 -28 75q0 19 6 50q6 36 7 50q15 75 56 146q11 2 24 -7q3 -8 3 -14q0 -8 -8 -22q-10 -18 -11 -22q-16 -47 -38 -130q-2 -25 -2 -43q0 -29 5 -41
q26 4 41 14q1 1 33 26q7 14 50 69q32 41 37 74q27 65 52 104q17 11 23 -6q3 -9 3 -17q0 -15 -11 -38q-12 -26 -14 -37q-28 -36 -34 -105q1 -5 3 -27q2 -17 11 -20q14 3 25 10q17 12 21 14q12 12 35 32l12 -8q-6 -29 -23 -43z" />
    <glyph glyph-name="v" unicode="v" horiz-adv-x="305" 
d="M324 296l19 -4q-6 -15 -16 -21l-39 -28q-10 -7 -48 -8l-9 3q-6 2 -9 2q-2 -15 -7 -48q-54 -149 -131 -215q-18 -15 -48 -8q-38 24 -38 85q0 15 2 35q14 70 25 102q1 22 12 50q16 41 18 48q9 5 17 5q12 0 21 -11q-1 -24 -13 -52q-18 -41 -20 -48q-1 -12 -14 -62
q-9 -36 -9 -61q0 -41 15 -55q12 4 25 19q19 22 22 25q47 71 62 102q28 60 28 114q0 15 -2 30q8 6 15 6t18.5 -11t15.5 -13q14 -4 27 -4q17 0 34 10q23 12 27 13z" />
    <glyph glyph-name="w" unicode="w" horiz-adv-x="485" 
d="M534 327q-7 -12 -16 -29q-23 -27 -86 -133q-50 -84 -101 -118q-12 -4 -23 -4q-18 0 -36 9l-31 44q-1 12 -11 52q-8 32 -7 53q-13 -23 -44 -67q-5 -16 -22 -42t-22 -38q-16 -22 -55 -62h-29q-23 0 -23 23q-1 62 11 153l18 146q1 11 15 11q16 0 22 -8q11 -15 11 -33
q0 -11 -5.5 -34t-5 -34t-8.5 -34q-6 -15 7 -30q-12 -2 -12 -4v-3q0 -10 -3 -26q-4 -22 -5 -27q-3 -27 0 -43q16 10 33 38q19 32 29 41q24 50 102 172q11 8 25 8q5 0 11 -1q15 -7 15 -20q0 -4 -2.5 -15.5t-1.5 -17.5q-5 -8 -6.5 -27t-5.5 -26q3 -62 4 -67q7 -39 33 -55
q9 -1 20 20q21 25 97 136q57 83 104 130h19q-4 -20 -15 -38z" />
    <glyph glyph-name="x" unicode="x" horiz-adv-x="309" 
d="M306 203q-14 -11 -39 -36q-15 -7 -33 -26l-30 -30q12 -25 39.5 -52.5l58.5 -61.5q-32 -2 -53 17q-15 11 -43 37l-31 33q-13 -13 -54 -41q-12 -10 -35 -33q-5 -2 -18.5 -15.5t-21.5 -13.5q-10 0 -20 11q0 15 10 25.5t32 26.5q3 1 3 7q33 20 87 72q-32 77 -32 111
q5 20 21 58h22q12 -3 12 -15q0 -7 -5.5 -28t-3.5 -29q-2 -6 -2 -12q0 -8 16 -57q19 14 104 94l31 -7q3 -27 -15 -35z" />
    <glyph glyph-name="y" unicode="y" horiz-adv-x="253" 
d="M120 -107q-42 -79 -84 -140l-46 -45q-14 -13 -18.5 -14.5t-30.5 -4.5q52 50 102 147q44 85 64 159q-1 6 -3 13q-4 11 -14 18q-40 26 -63 129q-2 34 -15 122q0 -3 -1 19q0 7 5 7q11 1 21.5 -13.5t11.5 -26.5q7 -60 20 -121q17 -80 64 -102q28 60 82 230q21 11 24 12
q6 0 11 -6l11 -10q-5 -27 -26 -71q-19 -38 -64 -164.5t-51 -137.5z" />
    <glyph glyph-name="z" unicode="z" horiz-adv-x="270" 
d="M42 14h2q3 0 7 -3q23 -1 81 9q52 9 97 0q-8 -8 -8 -14q-103 -20 -189 -26l-23.5 11t-18.5 14q-2 15 20 31q59 27 140 74q22 13 75 57l8 14q-27 17 -66 17q-24 0 -89 -13q-14 -3 -38 13q-3 6 -3 11q0 9 13 12q2 1 7 2q4 -1 8 -1q6 0 18.5 3.5t19.5 2.5q40 4 63 4
q70 0 103 -31q5 -6 5 -15t-6 -22l-5 -4l-1 -2q-3 -4 -11 -11q-1 -5 -6 -8l-10 -4q-1 -2 -2 -6q-10 -4 -30.5 -20.5t-33.5 -20.5q-20 -14 -64 -37q-8 -8 -32 -20q-14 -3 -31 -17z" />
    <glyph glyph-name="braceleft" unicode="{" horiz-adv-x="1062" 
d="M661 692q-8 -5 -12 -9zM694 706h1q1 -1 2 -1q-1 1 -3 1zM686 707q-9 -1 -25 -15l11 8.5t14 6.5zM687 707h1.5h3.5h1h-4h-2zM615 645l-6 -7l-4 -7zM576 590v0v0v0zM573 610q0 -2 2.5 -8t2.5 -9l-3 -3v0l3 3q-1 -2 -2 -3q3 0 2 4l10 14q-4 -6 -10 -14q-3 6 -5 16zM605 631
l-17 -23l17 21l-4 -4zM614 640l-9 -11q3 4 9 11zM616 643q-1 -2 -2 -3zM526 757h-2l2 -3q6 3 0 3zM545 679q-5 -2 1 -3zM696 695l1 -1q13 -7 11 -33q1 12 -1 19t-10 15h-1zM581 585v-1l1 1h-1zM687 699h2h-2zM692 699h-1h1v0zM693 707v0h-1q-1 -2 -4 -7l2 -1l6 -4q-1 3 -2 4
q2 2 1 7h-1q0 1 -1 1zM708 661q-1 -6 -2 -17q2 8 2 17zM552 669l-2 5h1q3 0 3 -2q1 -2 -2 -3zM521 756q0 -1 2 -3h-1h1v-1q-1 -3 -3 -7q-23 -43 -31 -62q2 2 10 18q2 6 15 27q10 17 10 23q8 -15 18 -49l7 -27q-2 0 -3 1l1 -6q3 -21 15 -62q2 -2 3 -11.5t16 -11.5q-3 3 -6 5
q-11 11 -14 26q-4 22 -8 29q2 4 -1 13q-4 13 -4 15l1 1v-1l2 -6v-1v0v0q10 3 10 5t-11 4v1q-4 24 -17 65q-1 2 -7 13v0l-3 -1q-1 2 -2 3zM687 699q-30 -8 -89 -95q-3 -2 -16 -19l2 -1l15 22l32 44q29 40 56 49zM829 600q-53 -1 -113 -29l19 6q18 5 19 8l-15 -5q45 16 74 17
h1q2 0 15 3zM843 601q-1 0 -1 -1h-2q4 -1 5.5 -5.5t1.5 -8.5q0 -5 -5 -13q-8 -11 -8 -12q1 0 10 13q6 4 4 16q-2 11 -5 11zM835 601q-2 0 -6 -1h5h6q-2 1 -5 1zM834 561l-1 -1q-5 -8 -14 -25l1 1q1 4 14 25zM319 784q-6 -23 -32 -90q12 24 26 67zM1052 364l-12 5
q-24 11 -38 16q-31 11 -74 22l1 4q5 18 10 32q10 28 10 25q11 18 11 37q1 -1 1 11q0 9 -18 19q-7 1 -19 2q-13 0 -28.5 -3t-38.5 -9q-8 -2 -17 -5q-4 -1 -9 -13q7 9 22 9q17 -1 19 0l44 3l18 -2q6 -1 6 -7q0 -10 -14 -46q-18 -44 -20 -50l-4 -13q-1 -3 5 -13l7 -2
q39 -7 88 -27l32 -14q1 0 3 -1v-4l1 1l5 -14q-3 2 -3 1q-4 2 -4 7v0l1 1l-7 -6q-12 -10 -41 -28q11 6 13 7v0q0 -1 -83 -54q2 -16 9.5 -24t8.5 -11q26 -35 38.5 -55.5t31.5 -60.5q-13 6 -35 21q-36 21 -68 25h-8l-5 -1l-12 -21v0q0 1 2 4v-1q8 -35 27 -105q0 -6 7 -35
l-25 11q-37 8 -59 4q-2 2 -22 -7l-2 -2q0 -1 -4 -15v0l2 -9q1 -9 5 -27.5l12 -55.5v-9q-2 1 -7 2l-11 4q2 0 -7 3q1 -1 -7 3q-12 10 -29 11l-17 5q-1 0 -0.5 0t-0.5 0q-1 1 -6 1l-2 -1l-9 -2q-12 -3 -17 -7q-8 -6 -15 -21q-2 -20 -3 -54h-2l-3 4q1 -1 -1 2v0l1 -1q-1 2 -5 8
q-8 10 -32 44l-16 22l-16 20l-18 3v0l-2 -1l-2 -1q-25 -26 -59 -82l2 -3v0q-2 0 -12 14.5t-8 19.5q-4 20 -16 63q-1 5 -3 11.5t-24 13.5q-5 0 -25 -6q-5 -3 -17 -7q-5 -4 -20.5 -12t-35.5 -22l-8 -6q-1 0 -3 -2l-3 -1q-6 1 -13 -7l-3 -3q3 2 6 2l-12 -5q-16 -13 -29 -21
q9 26 28 64l19 37l9 18l1 3q1 2 2 9v1l-21 14q3 -2 -2 1l-13 -4q-51 -20 -75 -25q-14 -4 -38 -8q-1 0 -8 -1l12 15q3 0 16 26q0 2 5 5q13 17 34 54l4 10h0.5h0.5q0 1 1 7v1q-9 10 -18 19v0q1 0 3 -3v0l-7 1q-36 4 -83 5q-14 0 -40 2l-6 1q12 7 49 36v0v-1q0 4 1 24v0l-1 1
l-4 3l-2 2q-7 5 -13 8l-19 10l-38 18q-38 18 -79 28q5 2 30 10q46 15 83 25l17 5l8 19l2 4q0 -1 -1 -1l-2 5q-30 48 -71 88q-13 9 -34 27v0l40 6q26 1 79 6q12 23 12 45q0 16 -8.5 41.5t-9.5 37.5q-5 19 -15 53q-3 8 -7 21q17 -13 51 -34l27 -20q4 -3 15 -9l3 -2h1v0h-1
l-1 1l-14 9l-26 18q-19 14 -55 38v2h-1l4 -2l71 -47q4 -3 13 -9l8 -5h2v0l-1 -2h2q4 1 13 6l1 4q4 12 9 32q10 28 14 53q0 -1 -1 -2h-1q1 2 3 7q1 1 1 4h1h1v0l21 51q4 9 10 25q6 28 10 28q2 0 10.5 -19t21.5 -60q5 -27 18 -79q4 -16 14 -48l7 -15q6 -2 10 -2q6 0 7.5 5
t3.5 6l62 109l30 59q2 2 3.5 4.5t3.5 4.5q3 2 5 -2v1q-1 4 -3 3l1 2q-7 7 -10 -5q-41 -79 -91 -160q-7 -18 -13 -18t-11 19q-5 16 -9 31q-6 29 -21 85q-3 7 -9 25l-7 26q-4 8 -9 24q-5 9 -10 8q3 3 -1 5t-8 0l-2 -1l2 -1l-2 1l-2 -1q0 -3 -3 -10l-24 -71q6 16 16 45l7 27
q0 -3 1 -1q1 1 3 10l-2 -2l1 2l-1 -2q-1 -2 -1 -4q-8 -28 -36 -103q-4 0 -6 -8q-3 -11 -3 -12q-7 -27 -21 -69q0 -2 -1 -7l-6 4l3 -2l-6 4q-25 16 -71 51q-18 12 -26 12q-9 0 -11 -11l12 -42l25 -91q-2 6 -16 69q9 -31 21 -89q-2 5 -5 17q2 -21 6 -54q-23 0 -70 -3
q-17 -1 -34 -3q-21 -2 -36 -10q1 -19 19 -31q23 -16 26 -21q15 -17 44 -53q6 -9 19 -27q1 -1 1 -3h-2l-17 -5q-55 -14 -66 -18q-37 -12 -64 -30q-2 -15 10 -19l20 -4.5t30 -9.5q26 -9 63 -28l31 -15q4 -2 13 -9l-4 -3q-16 -13 -59 -40q-2 -4 -2 -8q0 -15 28 -17
q36 -2 107 -7q11 -2 27 -2q-7 -14 -15 -27q-1 -3 -8 -11t-7 -12q0 -3 3 -6q-13 2 -14.5 -4.5t-1.5 -12.5q0 -1 -10 -10l-25 -30q-1 -4 -1 -8q0 -11 14 -16q13 -4 21 1q17 1 77 18q21 6 37 12l9 4q-19 -34 -51 -104l-8 -24q0 -2 1 -6l2 -3l8 -10q23 -1 42 13q31 23 32.5 23
t29.5 19l8 5q1 0 1 1q7 2 10 7q5 2 14 6q4 3 13.5 7t16.5 8l13 2q5 -8 4 -9q5 -23 18 -71q6 -12 23 -35q7 -6 14 -5q14 2 13 2q3 3 9 14q4 3 5 7q15 18 43 59q0 -1 1 0l5 -6l21 -29q15 -19 44 -60q7 -4 15 -4q9 0 8 0h6q7 6 13 13v0q0 -1 -2 -2v0l1 11l3 53q4 2 6 5
q16 5 26 1q19 -5 29 -10.5t38 -15.5q3 1 6.5 -0.5t5.5 -1.5q5 0 18 13l1 19q-1 10 -7 38l-8 34q-1 6 -2 18l-1 4q32 4 57 -5l15 -6q9 -9 17 -9q1 0 10 5h3l11 11q-2 -2 1 1v8q-2 7 -5 21q-10 34 -27 105l-3 13q23 -3 52 -21l26 -8t17 -13h2h3v0q13 -1 19 10q3 20 0 24
q-3 6 -4 7q-30 64 -78 123l31 19l70 48q1 0 8 9q1 -2 0 1q2 2 4 6l1 7q0 1 1 5v9q-1 1 0.5 1t-10.5 14z" />
    <glyph glyph-name="bar" unicode="|" horiz-adv-x="166" 
d="M152 643q-9 -20 -3 -38q-14 -31 -16 -90q-2 -69 -8 -92q-4 -37 -10 -119q3 -6 3 -11t-3 -10q0 -9 -8 -123q-5 -73 -1 -124q-5 -9 -5 -26q0 -7 1.5 -20t1.5 -20q0 -14 -3 -22q0 -26 3 -63q1 -24 8 -64q-1 -18 14 -49q4 -18 4 -30q0 -24 -16 -21q-45 41 -57 149q1 3 0 56
q-2 121 24 531q8 124 15 181q2 19 16 55q7 18 21 20q12 2 26 -14q7 -25 -7 -56z" />
    <glyph glyph-name="braceright" unicode="}" horiz-adv-x="509" 
d="M231 58l-3 2q-2 2 -3 4q-6 5 -18 14l-2 1q-3 1 -5 3q-11 5 -50 25q-25 13 -59 47q-16 16 -28 43q-2 8 -6 19q-12 33 -10 47q4 26 20 52q10 10 23 20q32 25 72 26q7 1 19 0q12 -3 34 -8q23 -8 37 -36l1 1q4 12 11 19q2 3 5 5q22 20 55 20q32 0 61 -12q16 -7 24 -18
q42 -37 42 -101q0 -17 -2 -29q-10 -61 -102 -95q-24 -9 -51 -23q-2 -1 -17 -12l-9 -6v-11q-4 -3 -8 -3q-2 0 -4 1l-3 -4q-1 -2 -4 -7l-4 -3h1l1 1v-1h-1q-2 -3 -6 -3q-5 0 -7 4l-1 -8q-5 23 -3 26zM324 342q-24 1 -39 -11q7 3 39 11zM402 158q31 26 31 72v4q-3 -48 -30 -73z
M246 94q3 -4 9 -10q11 9 36 24q27 11 59 32l20 14q3 3 12 13q36 40 33 88q0 6 -6 22q-10 19 -22 28h-1q-22 17 -48 17q-15 0 -35 -6q-13 -9 -27 -20q-11 -22 -8 -34q2 -2 2 -4q0 -5 -10 -7l-1 -1q-4 -1 -7 0q-5 4 -5 7l-1 2q-2 4 -2 7v2q-8 7 -5 17q-2 4 -17 17l-10 7
q-10 2 -21 6q-34 0 -42 -3q-23 -6 -39 -24q-9 -16 -13 -35q1 -4 -1 -13q3 -31 17 -48l33 -33h2q15 -8 43 -26q27 -9 25 -9q11 -2 33 -15q4 -4 4 -7q0 -4 -6 -8h-1zM237 309l1 -1q0 1 -1 1z" />
    <glyph glyph-name="asciitilde" unicode="~" horiz-adv-x="288" 
d="M207 723q9 4 11 4q24 17 50 66q15 27 25 27t14 -31l-24 -42q-12 -10 -30 -33t-33 -31q-26 2 -41 27q-6 10 -21 49q-5 13 -16 37.5t-28 26.5q-25 -9 -42 -43q-5 -10 -20 -59q-3 -11 -15 -14t-12 25q0 48 42 103q2 0 6.5 2.5t4.5 6.5q25 19 46 17q27 -8 47 -51
q7 -7 12.5 -27.5t14.5 -25.5v-8q0 -2 -2 -3l2 -4q1 -8 5 -6l2 -11l2 2v-4z" />
    <glyph glyph-name="Adieresis" unicode="&#xc4;" horiz-adv-x="448" 
d="M440 276h-13q-3 -1 -6 -7q-19 3 -31 -9q-1 -10 -1 -21q0 -31 11 -70q9 -31 19 -69q8 -13 40 -82q4 -4 4 -9q0 -10 -22 -23q-22 9 -44 60q-8 20 -31 72q-7 33 -15 48q-2 27 -11 79q-43 -8 -126 -36q-15 -1 -48 -9q-13 -3 -17 -18q-40 -43 -67 -125q11 12 39 36l-23 -62
q-7 -1 -10 -12q-7 -28 -45 -28q-8 0 -14 2q1 3 1 5q0 5 -3 7q1 53 41 116q26 42 46 82l-23 8q-12 7 -11 20q-1 10 23 27q6 2 12 2q5 0 16.5 -5t17.5 -3q14 22 44 65q18 19 39 50l35 52q5 12 20 33.5t20 33.5q5 3 9 14t6 14q-2 3 3 19q1 2 2 10q9 2 12 12q5 17 18 18
q20 2 35 -7q2 -16 2 -40q0 -23 -2 -55q2 -13 2 -26q0 -33 -12 -61q0 -14 -3 -41q2 -12 7 -36q8 0 24 3t24 3q20 0 32 -13q-13 -18 -26 -24zM335 378q2 49 1 70q-46 -61 -130 -189q34 11 102 25q13 1 29 12q-4 29 -2 82zM317 650q-3 -29 -31 -32q-15 9 -15 15q-2 11 -2 19
q0 28 23 28q8 -2 15.5 -4.5t9.5 -11.5v-14zM443 648q-2 -22 -24 -24q-11 7 -11 11q-2 9 -2 15q0 21 18 21q6 -1 12 -3t7 -9v-11z" />
    <glyph glyph-name="Aring" unicode="&#xc5;" horiz-adv-x="494" 
d="M478 533q-16 -27 -50 -52q-15 -1 -47 -14q0 -6 15 -143q0 -28 9 -40q21 3 69 37q2 1 23 15q2 -7 2 -13q0 -16 -14 -28l-26 -23q-38 -20 -47 -35q23 -92 61 -155q5 -5 28 -48q-5 -9 -18 -20q-16 6 -26 22l-15 31q-22 29 -41 76l-31 81q-4 -4 -19 -6t-20 -10
q-12 -7 -44 -11q-40 -15 -65 -15q-5 0 -15 1q-22 2 -36 -23q-20 -37 -27 -42q-8 -17 -11 -22q-7 -12 -16 -19q-19 -24 -55 -75q-30 -24 -39 -24q-13 0 -13 15q0 14 10 30l17 27l71 89q41 58 47 100q19 4 22 4q11 4 15 13t33 62q21 38 28 63q6 20 26 50q10 24 34 71
q-26 42 -26 89q0 33 14 65q5 11 43 46q13 -2 32.5 11t30.5 13q9 10 22 10q3 0 24 -3q62 -27 59 -92q-4 -74 -34 -108zM411 705q-1 -2 -22 -12q-13 -6 -13 -21q-6 -3 -7 -4l-4 -1q-2 0 -4 -3q-29 -32 -29 -81q0 -23 7 -41q3 -1 4 -4l3 -4q8 -11 16 -11q7 0 15 11
q10 3 18.5 -7t13.5 -10t11 3q10 10 32 37q27 34 27 82q0 23 -8 38q-21 30 -46 30q-7 0 -14 -2zM352 335q-5 33 -18 58q-10 -9 -24 -32q-11 -8 -25 -30.5t-25 -30.5q-1 -3 -46 -68q10 -2 22 -2q20 0 43 5q4 2 43 14q26 8 40 22q-1 2 -10 64z" />
    <glyph glyph-name="Ccedilla" unicode="&#xc7;" horiz-adv-x="454" 
d="M273 -19q31 -22 45 -55q2 -9 2 -18q0 -37 -40 -80q-107 -76 -190 -76q-21 0 -40 4q-12 17 -12 34q0 25 15 29q14 3 15 -13q1 -6 8 -9h34q20 -1 32 7q18 2 53 20q23 4 45 23l35 38q14 28 2 43q-20 26 -85 44l-9 -1q-52 6 -90 34q-41 31 -51 79q-5 14 -5 31q0 28 13 71
l20 66l56 102q33 60 70 95q87 118 164 155q14 2 26 2q28 0 43 -13v-18q-1 -9 -9 -16q-3 -1 -32 -2q-21 -1 -30 -12l-40.5 -26t-36.5 -36q-145 -145 -193 -351q-2 -56 25 -90q28 -37 82 -37q15 0 44.5 4.5t41.5 5.5q29 8 84 33q6 1 22 10.5t26 7.5q4 5 12 5h20l-1 -11
q-20 3 -23 -1q-6 -9 -12 -10q-20 -14 -39 -29q-26 -16 -44 -17q-23 -16 -53 -22z" />
    <glyph glyph-name="Eacute" unicode="&#xc9;" horiz-adv-x="486" 
d="M372 514q-49 -5 -85 -19q-22 0 -27 -6q-5 -19 -25 -37q-12 -11 -28 -32q-10 -24 -31 -60l-20 -50q6 -2 11 -2t21.5 6t24.5 7q22 3 32 10q14 4 166 61l41 -4q-33 -33 -48 -33q-19 -18 -57 -33q-53 -21 -61 -26q-21 -5 -64 -26q-27 0 -86 -23q-39 -82 -39 -150q0 -14 2 -26
q13 -48 45 -51q50 -4 105 36l102 77q1 -20 -13 -39q-4 -5 -29 -30q-78 -93 -168 -87q-77 28 -90 81q-10 77 7 120q10 25 22 69q-20 9 -19 34q6 6 20 10.5t18 7.5q1 15 16 42t16 42q8 3 10 12.5t5 12.5q15 26 48 75q-2 2 -31 8l-11 17q-1 4 -1 7q0 23 53 22q35 -1 43 1
q93 19 170 19q51 0 97 -8l6 -14q-29 -9 -148 -21zM271 643q44 40 105 45q2 -2 6.5 -7t0.5 -11q-4 -5 -11 -5l-2 -1q-7 0 -9 -4q-39 -17 -50 -24q-27 -17 -42 -36q-9 -2 -16 4.5t-5 15.5q5 3 6.5 6t16.5 17z" />
    <glyph glyph-name="Ntilde" unicode="&#xd1;" 
d="M437 623q9 4 11 4q24 17 50 66q15 27 25 27t14 -31l-24 -42q-12 -10 -30 -33t-33 -31q-26 2 -41 27q-6 10 -21 49q-5 13 -16 37.5t-28 26.5q-25 -9 -42 -43q-5 -10 -20 -59q-3 -11 -15 -14t-12 25q0 48 42 103q2 0 6.5 2.5t4.5 6.5q25 19 46 17q27 -8 47 -51
q7 -7 12.5 -27.5t14.5 -25.5v-8q0 -2 -2 -3l2 -4q1 -8 5 -6l2 -11l2 2v-4zM552 535q-2 -3 -1 -12q-11 -3 -18 -23q-4 -12 -12 -17q-2 -8 -20 -53q-13 -33 -14 -54q-6 -21 -27 -59q-4 -23 -7 -28q-4 -15 -13 -26q-16 -57 -58 -177q-10 -43 -42 -93q-12 4 -35 13
q-59 79 -91 244q-9 24 -12 95q-5 18 -7.5 53.5t-6.5 52.5h-1l-49 -164q-8 -20 -20 -75q-11 -48 -25 -73q2 -5 2 -11q0 -13 -13 -41t-14 -41t-10.5 -43.5t-8.5 -47.5q-9 -19 -25 -19q-26 0 -26 20q0 4 4 20q3 13 1 19q33 95 88 278q57 190 87 278q9 6 19 6q26 0 18 -1
q9 -12 22 -20q-4 -61 11 -99q-2 -15 -2 -32q0 -22 4 -60q5 -44 6 -59q25 -141 70 -216q-2 7 9 20q3 19 18.5 55t18.5 55l65 186q39 102 87 176q18 10 22 10q16 0 16 -15z" />
    <glyph glyph-name="Odieresis" unicode="&#xd6;" horiz-adv-x="531" 
d="M511 356q0 -3 1 -9t1 -9q-2 -4 -7 -9q-12 -59 -68 -133q-6 -5 -19 -33q-88 -89 -117 -112q-76 -60 -144 -60q-9 0 -18 1q-15 4 -40 21q-67 31 -67 108q0 89 90 223q2 4 47 70q56 81 143 131q63 18 87 18q23 0 39 -11h14q64 -70 64 -151q0 -20 -4 -41q-2 -2 -2 -4z
M398 512l2 -4l-12 -12q-3 12 -9 13q-22 0 -52 -22q-22 -17 -39 -21q-176 -180 -201 -342q0 -90 75 -90q57 0 126 63q51 38 57 54q43 43 68 82q53 83 53 169q0 30 -7 56q3 8 -6.5 16.5t-9.5 14.5l-18 16q-9 8 -19 8q-4 0 -8 -1zM367 650q-3 -29 -31 -32q-15 9 -15 15
q-2 11 -2 19q0 28 23 28q8 -2 15.5 -4.5t9.5 -11.5v-14zM493 648q-2 -22 -24 -24q-11 7 -11 11q-2 9 -2 15q0 21 18 21q6 -1 12 -3t7 -9v-11z" />
    <glyph glyph-name="Udieresis" unicode="&#xdc;" horiz-adv-x="445" 
d="M312 203l-49 -79q-9 -8 -24 -31.5t-27 -32.5q-56 -93 -126 -103q-58 22 -64 69q3 109 48 255q13 42 88 246q5 6 13 32q6 20 21 28q20 2 33 -8q3 -13 8 -39q-15 -12 -28 -43q-14 -34 -24 -45q-5 -23 -31 -85q-22 -51 -25 -87l-7 -4q-44 -162 -44 -222q0 -26 5 -47
q2 -5 11 -5q8 -1 16 5q52 39 134 168q17 21 40.5 65.5t36.5 62.5q52 98 105 280q27 19 41 11q13 -7 13 -21q0 -9 -9.5 -31t-9.5 -31q-5 -21 -62 -198q-38 -118 -48 -201q14 -5 14 -22q0 -7 -16 -52q-1 -3 -19 -18q-9 -3 -13 1l-9 6q-2 0 -11 -2q-2 71 19 178zM287 670
q-3 -29 -31 -32q-15 9 -15 15q-2 11 -2 19q0 28 23 28q8 -2 15.5 -4.5t9.5 -11.5v-14zM413 668q-2 -22 -24 -24q-11 7 -11 11q-2 9 -2 15q0 21 18 21q6 -1 12 -3t7 -9v-11z" />
    <glyph glyph-name="aacute" unicode="&#xe1;" horiz-adv-x="228" 
d="M197 2q-6 -2 -18 -9q-14 -1 -44 17q-1 9 -8.5 29.5t-7.5 31.5q-8 -10 -11 -17q-39 -49 -46 -55q-30 -27 -65 -22q-28 23 -28 66q0 36 25 105q46 126 136 190h16q25 0 25 -29q0 -9 -7 -38q-5 -14 -23 -36q-3 -8 -25 -15q5 28 17 42q1 4 5 17q2 3 2 6q0 4 -2 8q5 5 5 8
q-6 1 -22 -18q-3 -2 -10 -10q-108 -126 -110 -228q4 -30 18 -34q30 8 62 56q44 40 63 95q3 9 33 135q4 10 23 16q10 -10 10 -23q0 -7 -4 -20q-5 -16 -6 -21q-42 -117 -42 -156q0 -50 20 -68q17 5 28 3q1 -4 1 -8q0 -11 -10 -18zM141 407q12 43 48 68q2 -1 7.5 -3t2.5 -9
q-1 -3 -4 -5l-1 -1q-4 -3 -4 -6q-18 -25 -22 -34q-10 -21 -12 -39q-3 -3 -9 -3q-9 0 -12 9q2 9 6 23z" />
    <glyph glyph-name="agrave" unicode="&#xe0;" horiz-adv-x="228" 
d="M197 2q-6 -2 -18 -9q-14 -1 -44 17q-1 9 -8.5 29.5t-7.5 31.5q-8 -10 -11 -17q-39 -49 -46 -55q-30 -27 -65 -22q-28 23 -28 66q0 36 25 105q46 126 136 190h16q25 0 25 -29q0 -9 -7 -38q-5 -14 -23 -36q-3 -8 -25 -15q5 28 17 42q1 4 5 17q2 3 2 6q0 4 -2 8q5 5 5 8
q-6 1 -22 -18q-3 -2 -10 -10q-108 -126 -110 -228q4 -30 18 -34q30 8 62 56q44 40 63 95q3 9 33 135q4 10 23 16q10 -10 10 -23q0 -7 -4 -20q-5 -16 -6 -21q-42 -117 -42 -156q0 -50 20 -68q17 5 28 3q1 -4 1 -8q0 -11 -10 -18zM146 388l-10 -4q-2 9 -6 14.5t-5 6.5
q-3 7 -12 18l-14 23q-6 8 -4 13v2l1 1q3 5 9 5q5 -5 12 -16t10.5 -16t13.5 -26q3 -6 5 -21z" />
    <glyph glyph-name="acircumflex" unicode="&#xe2;" horiz-adv-x="228" 
d="M197 2q-6 -2 -18 -9q-14 -1 -44 17q-1 9 -8.5 29.5t-7.5 31.5q-8 -10 -11 -17q-39 -49 -46 -55q-30 -27 -65 -22q-28 23 -28 66q0 36 25 105q46 126 136 190h16q25 0 25 -29q0 -9 -7 -38q-5 -14 -23 -36q-3 -8 -25 -15q5 28 17 42q1 4 5 17q2 3 2 6q0 4 -2 8q5 5 5 8
q-6 1 -22 -18q-3 -2 -10 -10q-108 -126 -110 -228q4 -30 18 -34q30 8 62 56q44 40 63 95q3 9 33 135q4 10 23 16q10 -10 10 -23q0 -7 -4 -20q-5 -16 -6 -21q-42 -117 -42 -156q0 -50 20 -68q17 5 28 3q1 -4 1 -8q0 -11 -10 -18zM185 369q-9 -12 -11 2t-3 28q-2 35 -14 58
q-17 -12 -26 -36q0 -4 -6 -10v-2q-2 -5 -7 -10q-1 -2 -5 -5q3 -2 -2 -2l2 2q-4 3 -4 5q0 6 7 20q11 20 19 33q5 7 16 17q5 2 13 -1q4 -16 15 -42v-3q0 -2 2 -3l-1 -5q3 -24 5 -38v-8z" />
    <glyph glyph-name="adieresis" unicode="&#xe4;" horiz-adv-x="218" 
d="M197 2q-6 -2 -18 -9q-14 -1 -44 17q-1 9 -8.5 29.5t-7.5 31.5q-8 -10 -11 -17q-39 -49 -46 -55q-30 -27 -65 -22q-28 23 -28 66q0 36 25 105q46 126 136 190h16q25 0 25 -29q0 -9 -7 -38q-5 -14 -23 -36q-3 -8 -25 -15q5 28 17 42q1 4 5 17q2 3 2 6q0 4 -2 8q5 5 5 8
q-6 1 -22 -18q-3 -2 -10 -10q-108 -126 -110 -228q4 -30 18 -34q30 8 62 56q44 40 63 95q3 9 33 135q4 10 23 16q10 -10 10 -23q0 -7 -4 -20q-5 -16 -6 -21q-42 -117 -42 -156q0 -50 20 -68q17 5 28 3q1 -4 1 -8q0 -11 -10 -18zM214 382q-21 0 -26 11q-2 5 0 14l2 3
q1 4 -10 23q19 -9 23 -9q9 2 17 5q9 1 15 -9q2 -7 -6 -29q-1 -2 1 -13q-11 4 -16 4zM78 428q8 10 45 10q-4 -20 -4 -21q-4 -13 -11 -17q-15 -12 -29 -2q-16 11 -1 30z" />
    <glyph glyph-name="atilde" unicode="&#xe3;" horiz-adv-x="255" 
d="M181 394q5 2 6 2q12 9 26 35q8 14 13 14q6 0 8 -16l-14 -21.5t-32 -34.5q-14 1 -22 14l-14 34q-10 25 -20 26q-13 -5 -22 -23q-4 -7 -11 -31q-2 -6 -8 -7q-6 -2 -6 13q0 25 22 54q1 0 3.5 1.5t2.5 3.5q13 10 24 9q15 -5 25 -27q3 -12 14 -28v-4q0 -1 -1 -2l1 -2
q1 -4 3 -3l1 -6l1 1v-2zM237 2q-6 -2 -18 -9q-14 -1 -44 17q-1 9 -8.5 29.5t-7.5 31.5q-8 -10 -11 -17q-39 -49 -46 -55q-30 -27 -65 -22q-28 23 -28 66q0 36 25 105q46 126 136 190h16q25 0 25 -29q0 -9 -7 -38q-5 -14 -23 -36q-3 -8 -25 -15q5 28 17 42q1 4 5 17q2 3 2 6
q0 4 -2 8q5 5 5 8q-6 1 -22 -18q-3 -2 -10 -10q-108 -126 -110 -228q4 -30 18 -34q30 8 62 56q44 40 63 95q3 9 33 135q4 10 23 16q10 -10 10 -23q0 -7 -4 -20q-5 -16 -6 -21q-42 -117 -42 -156q0 -50 20 -68q17 5 28 3q1 -4 1 -8q0 -11 -10 -18z" />
    <glyph glyph-name="aring" unicode="&#xe5;" horiz-adv-x="234" 
d="M245 400q-49 10 -65 53h-5q-14 -10 -52 -51q-11 -12 -24 -23q-6 10 -6 17q0 8 12 19q4 3 5 6q37 72 108 92q21 3 50 -17q16 -16 16 -43q0 -13 -3 -27q-7 -16 -36 -26zM244 469q-1 4 -14 4h-3q-1 -5 -1 -10t2.5 -9.5t10.5 -8.5q5 -2 7 0q2 15 -2 24zM128 95v-35
q0 -16 4 -27q20 2 41 23l17 17.5l17 17.5q4 1 8.5 10.5t15.5 12.5q6 -6 6 -11q0 4 -7 -17q-37 -40 -39 -42q-23 -23 -45 -35q-26 0 -36 5q-15 8 -16 31q0 5 -2 11q-16 -26 -56 -73q-4 -16 -23 -12q-40 0 -40 41q0 9 10 59q7 0 8 6q2 12 3 13l27.5 51.5l27.5 51.5
q32 58 73 90q9 7 23 7q29 0 38 -23q-4 -11 3 -31q8 -21 -7 -32q-3 -12 -19.5 -36.5t-16.5 -41.5q-10 -6 -9 -17v-9zM76 173l-36 -61q-23 -41 -25 -63q-13 -33 -4 -47q1 -3 6 -1l44 57q22 30 36 63q0 -2 10 28q4 9 -8 12q-2 15 8 18l2 1h1q9 12 26 43q-1 6 10 23
q-21 -9 -39 -32q-10 -14 -31 -41z" />
    <glyph glyph-name="ccedilla" unicode="&#xe7;" horiz-adv-x="228" 
d="M196 63q4 2 7 2q6 0 12 -4q-3 -15 -18 -24.5t-29 -17.5q-37 -18 -71 -17q0 -13 -16 -28q34 -6 44 -32q1 -4 1 -9q0 -16 -17 -35q-45 -33 -65 -33q-6 0 -13 4.5t-7 8.5t10.5 4.5t13.5 2.5q8 2 24 10q9 1 20 11l15 17q2 6 2 11t-2 8q-4 9 -28 16q-9 2 -27 7v-1q-5 2 -7 5
q5 6 14 6h12l2 2q11 14 14 26q-1 0 -12 2q-25 5 -47 21q-23 22 -23 64q0 18 4 39q64 151 159 181q32 -14 35 -43q1 -7 -4 -12t-12 -3q-3 1 -8 6t-12 4l-29 -18q-16 -10 -24 -22q-13 -11 -35 -45q-18 -18 -26 -44q0 -4 -10 -50q3 -30 21 -38l6 -2q2 -1 7 -2q23 -5 89 13l29 8
z" />
    <glyph glyph-name="eacute" unicode="&#xe9;" horiz-adv-x="215" 
d="M183 418l-1 -2q-2 -6 -7 -7q-17 -12 -42 -44q-2 0 -11 -2q-5 -2 -10 1q-17 10 -4 27q42 22 78 56q6 -6 6 -12q0 -4 -1 -7t-8 -10zM72 3q-54 15 -65 107q-3 1 -28 1q-17 0 -27 16q0 24 12 28q13 0 26 -1q17 1 24 8q15 104 78 162q31 29 62 29q23 0 30 -12t10 -14
q2 -11 2 -22q0 -54 -76 -129q-27 -26 -69 -48q-3 -8 -3 -18q0 -15 13 -51q21 -23 44 -23q6 0 11 2q31 6 105 59h19v-18q-84 -80 -139 -80q-14 0 -29 4zM160 317q-33 -10 -79 -70q-10 -21 -24 -66q50 30 92 88q17 24 14 45z" />
    <glyph glyph-name="egrave" unicode="&#xe8;" horiz-adv-x="275" 
d="M223 364q-5 -3 -10 -1q-9 2 -11 2q-3 6 -23 27q-7 5 -19 17q-6 1 -7 7l-1 2l1 -1l-6 7q-2 2 -3 4.5t-1 6.5q0 6 6 12q36 -34 78 -56q13 -17 -4 -27zM127 3q-54 15 -65 107q-3 1 -28 1q-17 0 -27 16q0 24 12 28q13 0 26 -1q17 1 24 8q15 104 78 162q31 29 62 29
q23 0 30 -12t10 -14q2 -11 2 -22q0 -54 -76 -129q-27 -26 -69 -48q-3 -8 -3 -18q0 -15 13 -51q21 -23 44 -23q6 0 11 2q31 6 105 59h19v-18q-84 -80 -139 -80q-14 0 -29 4zM215 317q-33 -10 -79 -70q-10 -21 -24 -66q50 30 92 88q17 24 14 45z" />
    <glyph glyph-name="ecircumflex" unicode="&#xea;" horiz-adv-x="250" 
d="M217 18l-3 -2q-5 -3 -5 -11q-84 -58 -132 -58q-27 0 -52 14q-44 31 -44 104q43 171 177 263q4 1 23 3q17 2 26.5 -8.5t8.5 -27.5q-3 -14 -5 -27q-21 -60 -125 -134q-6 -4 -34 -8q-16 -2 -16 -18q-14 -22 -14 -53q0 -20 6 -44q16 -27 54 -29l4 2q16 -1 44 9q29 16 92 44
q3 -11 -5 -19zM175 277q-3 3 -7 6q-55 -31 -99 -110q5 0 11 3l53 46q31 30 42 55zM223 396q-5 -5 -10 -5q-12 0 -13.5 15t-4.5 37q-4 46 -17 75q-22 -17 -34 -48q-1 -4 -7 -11q0 -4 -4.5 -10t-5.5 -8t-6 -6q0 -1 -3 -2l3 2q-9 8 -9 12q-1 5 6 17q16 28 29 45q7 8 24 22
q8 4 20 0q7 -9 12 -28q6 -23 10 -30v-3q0 -4 3 -5l-1 -6q5 -34 7 -51q0 -3 1 -12z" />
    <glyph glyph-name="edieresis" unicode="&#xeb;" horiz-adv-x="250" 
d="M217 18l-3 -2q-5 -3 -5 -11q-84 -58 -132 -58q-27 0 -52 14q-44 31 -44 104q43 171 177 263q4 1 23 3q17 2 26.5 -8.5t8.5 -27.5q-3 -14 -5 -27q-21 -60 -125 -134q-6 -4 -34 -8q-16 -2 -16 -18q-14 -22 -14 -53q0 -20 6 -44q16 -27 54 -29l4 2q16 -1 44 9q29 16 92 44
q3 -11 -5 -19zM175 277q-3 3 -7 6q-55 -31 -99 -110q5 0 11 3l53 46q31 30 42 55zM107 420q-3 -29 -31 -32q-15 9 -15 15q-2 11 -2 19q0 28 23 28q8 -2 15.5 -4.5t9.5 -11.5v-14zM193 418q-2 -22 -24 -24q-11 7 -11 11q-2 9 -2 15q0 21 18 21q6 -1 12 -3t7 -9v-11z" />
    <glyph glyph-name="iacute" unicode="&#xed;" horiz-adv-x="152" 
d="M113 41q-9 -15 -30 -43q-39 -24 -57 -23t-40 30q-2 18 -2 36q0 82 41 217q5 16 27 66q6 7 16 7t19 -7t9 -16q0 -5 -3 -9q-25 -41 -44 -96l-12 -64q-15 -82 -13 -113q2 -6 10 -16q4 -1 12 6.5t11 8.5q12 8 33 31t37 30l23 27q-18 -60 -37 -72zM113 438l-1 -2q-2 -6 -7 -7
q-17 -12 -42 -44q-2 0 -11 -2q-5 -2 -10 1q-17 10 -4 27q42 22 78 56q6 -6 6 -12q0 -4 -1 -7t-8 -10z" />
    <glyph glyph-name="igrave" unicode="&#xec;" horiz-adv-x="152" 
d="M113 41q-9 -15 -30 -43q-39 -24 -57 -23t-40 30q-2 18 -2 36q0 82 41 217q5 16 27 66q6 7 16 7t19 -7t9 -16q0 -5 -3 -9q-25 -41 -44 -96l-12 -64q-15 -82 -13 -113q2 -6 10 -16q4 -1 12 6.5t11 8.5q12 8 33 31t37 30l23 27q-18 -60 -37 -72zM83 384q-5 -3 -10 -1
q-9 2 -11 2q-3 6 -23 27q-7 5 -19 17q-6 1 -7 7l-1 2l1 -1l-6 7q-2 2 -3 4.5t-1 6.5q0 6 6 12q36 -34 78 -56q13 -17 -4 -27z" />
    <glyph glyph-name="icircumflex" unicode="&#xee;" horiz-adv-x="152" 
d="M113 41q-9 -15 -30 -43q-39 -24 -57 -23t-40 30q-2 18 -2 36q0 82 41 217q5 16 27 66q6 7 16 7t19 -7t9 -16q0 -5 -3 -9q-25 -41 -44 -96l-12 -64q-15 -82 -13 -113q2 -6 10 -16q4 -1 12 6.5t11 8.5q12 8 33 31t37 30l23 27q-18 -60 -37 -72zM123 396q-5 -5 -10 -5
q-12 0 -13.5 15t-4.5 37q-4 46 -17 75q-22 -17 -34 -48q-1 -4 -7 -11q0 -4 -4.5 -10t-5.5 -8t-6 -6q0 -1 -3 -2l3 2q-5 3 -11 7t-6 11q0 5 4 11q16 28 29 45q6 3 12 11t12 11q12 6 30 0q7 -9 12 -28q6 -23 10 -30v-3q0 -4 3 -5l-1 -6q5 -34 7 -51q0 -3 1 -12z" />
    <glyph glyph-name="idieresis" unicode="&#xef;" horiz-adv-x="152" 
d="M113 41q-9 -15 -30 -43q-39 -24 -57 -23t-40 30q-2 18 -2 36q0 82 41 217q5 16 27 66q6 7 16 7t19 -7t9 -16q0 -5 -3 -9q-25 -41 -44 -96l-12 -64q-15 -82 -13 -113q2 -6 10 -16q4 -1 12 6.5t11 8.5q12 8 33 31t37 30l23 27q-18 -60 -37 -72zM57 420q-3 -29 -31 -32
q-15 9 -15 15q-2 11 -2 19q0 28 23 28q8 -2 15.5 -4.5t9.5 -11.5v-14zM143 418q-2 -22 -24 -24q-11 7 -11 11q-2 9 -2 15q0 21 18 21q6 -1 12 -3t7 -9v-11z" />
    <glyph glyph-name="ntilde" unicode="&#xf1;" horiz-adv-x="293" 
d="M260 190q-7 -33 -13 -65q-8 -41 -8 -65q0 -44 23 -77q-10 -3 -18 -3q-14 0 -25 9q-19 33 -19 79q0 29 9 73l14 70l-1 2q-38 -29 -86 -101q-51 -76 -81 -104q-14 -6 -25 -6q-6 0 -12 2q-17 13 -9 44q11 43 31 114q18 66 24 116q7 9 17 9t18.5 -11t6.5 -21l-43 -177
q4 11 20 28q51 71 66 89q40 47 83 74q33 0 33 -35q0 -7 -2.5 -22t-2.5 -22zM181 394q5 2 6 2q12 9 26 35q8 14 13 14q6 0 8 -16l-14 -21.5t-32 -34.5q-14 1 -22 14l-14 34q-10 25 -20 26q-13 -5 -22 -23q-4 -7 -11 -31q-2 -6 -8 -7q-6 -2 -6 13q0 25 22 54q1 0 3.5 1.5
t2.5 3.5q13 10 24 9q15 -5 25 -27q3 -12 14 -28v-4q0 -1 -1 -2l1 -2q1 -4 3 -3l1 -6l1 1v-2z" />
    <glyph glyph-name="oacute" unicode="&#xf3;" horiz-adv-x="246" 
d="M186 89q-8 -3 -13 -14q-9 -14 -10 -16q-13 -15 -43 -37q-31 -36 -83 -36q-14 0 -28 4q-33 21 -37 73q5 26 22 61l29 57q8 8 21.5 26t26.5 24q14 19 39 22q9 -3 31 15q4 4 14 10q27 0 39 -6q28 -25 28 -73q0 -25 -7 -51q-8 -20 -29 -59zM186 220q-2 21 -16 30l-32 -11
l8 -12l-2 -29q-3 -18 -12 -26q-5 -2 -9 -2q-11 0 -13 28v3q-9 -3 -24 -18t-22 -19q-31 -52 -34 -61q-16 -35 -13 -67q6 -11 17 -13q104 19 151 152v29v15q1 4 1 1zM173 388l-1 -2q-2 -6 -7 -7q-17 -12 -42 -44q-2 0 -11 -2q-5 -2 -10 1q-17 10 -4 27q42 22 78 56q6 -6 6 -12
q0 -4 -1 -7t-8 -10z" />
    <glyph glyph-name="ograve" unicode="&#xf2;" horiz-adv-x="246" 
d="M186 89q-8 -3 -13 -14q-9 -14 -10 -16q-13 -15 -43 -37q-31 -36 -83 -36q-14 0 -28 4q-33 21 -37 73q5 26 22 61l29 57q8 8 21.5 26t26.5 24q14 19 39 22q9 -3 31 15q4 4 14 10q27 0 39 -6q28 -25 28 -73q0 -25 -7 -51q-8 -20 -29 -59zM186 220q-2 21 -16 30l-32 -11
l8 -12l-2 -29q-3 -18 -12 -26q-5 -2 -9 -2q-11 0 -13 28v3q-9 -3 -24 -18t-22 -19q-31 -52 -34 -61q-16 -35 -13 -67q6 -11 17 -13q104 19 151 152v29v15q1 4 1 1zM133 344q-5 -3 -10 -1q-9 2 -11 2q-3 6 -23 27q-7 5 -19 17q-6 1 -7 7l-1 2l1 -1l-6 7q-2 2 -3 4.5t-1 6.5
q0 6 6 12q36 -34 78 -56q13 -17 -4 -27z" />
    <glyph glyph-name="ocircumflex" unicode="&#xf4;" horiz-adv-x="246" 
d="M186 89q-8 -3 -13 -14q-9 -14 -10 -16q-13 -15 -43 -37q-31 -36 -83 -36q-14 0 -28 4q-33 21 -37 73q5 26 22 61l29 57q8 8 21.5 26t26.5 24q14 19 39 22q9 -3 31 15q4 4 14 10q27 0 39 -6q28 -25 28 -73q0 -25 -7 -51q-8 -20 -29 -59zM186 220q-2 21 -16 30l-32 -11
l8 -12l-2 -29q-3 -18 -12 -26q-5 -2 -9 -2q-11 0 -13 28v3q-9 -3 -24 -18t-22 -19q-31 -52 -34 -61q-16 -35 -13 -67q6 -11 17 -13q104 19 151 152v29v15q1 4 1 1zM197 330q-4 -6 -10 -6q-11 0 -14 14t-7 36q-8 45 -24 73q-20 -18 -29 -50q-1 -5 -6 -12q0 -4 -4 -10
t-4.5 -8.5t-5.5 -6.5l1 -1q-1 -1 -4 -2l3 3q-6 3 -12 6.5t-6 10.5q0 5 2 11q14 29 26 46q5 4 10.5 13t11.5 12q11 7 29 2q8 -8 15 -27q8 -22 12 -29v-2q0 -4 4 -5l-1 -7q9 -33 12 -49q0 -3 1 -12z" />
    <glyph glyph-name="odieresis" unicode="&#xf6;" horiz-adv-x="246" 
d="M186 89q-8 -3 -13 -14q-9 -14 -10 -16q-13 -15 -43 -37q-31 -36 -83 -36q-14 0 -28 4q-33 21 -37 73q5 26 22 61l29 57q8 8 21.5 26t26.5 24q14 19 39 22q9 -3 31 15q4 4 14 10q27 0 39 -6q28 -25 28 -73q0 -25 -7 -51q-8 -20 -29 -59zM186 220q-2 21 -16 30l-32 -11
l8 -12l-2 -29q-3 -18 -12 -26q-5 -2 -9 -2q-11 0 -13 28v3q-9 -3 -24 -18t-22 -19q-31 -52 -34 -61q-16 -35 -13 -67q6 -11 17 -13q104 19 151 152v29v15q1 4 1 1zM107 380q-3 -29 -31 -32q-15 9 -15 15q-2 11 -2 19q0 28 23 28q8 -2 15.5 -4.5t9.5 -11.5v-14zM193 378
q-2 -22 -24 -24q-11 7 -11 11q-2 9 -2 15q0 21 18 21q6 -1 12 -3t7 -9v-11z" />
    <glyph glyph-name="otilde" unicode="&#xf5;" horiz-adv-x="246" 
d="M186 89q-8 -3 -13 -14q-9 -14 -10 -16q-13 -15 -43 -37q-31 -36 -83 -36q-14 0 -28 4q-33 21 -37 73q5 26 22 61l29 57q8 8 21.5 26t26.5 24q14 19 39 22q9 -3 31 15q4 4 14 10q27 0 39 -6q28 -25 28 -73q0 -25 -7 -51q-8 -20 -29 -59zM186 220q-2 21 -16 30l-32 -11
l8 -12l-2 -29q-3 -18 -12 -26q-5 -2 -9 -2q-11 0 -13 28v3q-9 -3 -24 -18t-22 -19q-31 -52 -34 -61q-16 -35 -13 -67q6 -11 17 -13q104 19 151 152v29v15q1 4 1 1zM151 364q5 2 6 2q12 9 26 35q8 14 13 14q6 0 8 -16l-14 -21.5t-32 -34.5q-14 1 -22 14l-14 34q-10 25 -20 26
q-13 -5 -22 -23q-4 -7 -11 -31q-2 -6 -8 -7q-6 -2 -6 13q0 25 22 54q1 0 3.5 1.5t2.5 3.5q13 10 24 9q15 -5 25 -27q3 -12 14 -28v-4q0 -1 -1 -2l1 -2q1 -4 3 -3l1 -6l1 1v-2z" />
    <glyph glyph-name="uacute" unicode="&#xfa;" horiz-adv-x="312" 
d="M295 50q-13 -11 -31 -29q-26 -15 -44 -15q-27 0 -37 35q-2 3 -4 13q-4 16 -8 16q-1 0 -59 -63q-37 -33 -95 -41q-28 32 -28 75q0 19 6 50q6 36 7 50q15 75 56 146q11 2 24 -7q3 -8 3 -14q0 -8 -8 -22q-10 -18 -11 -22q-16 -47 -38 -130q-2 -25 -2 -43q0 -29 5 -41
q26 4 41 14q1 1 33 26q7 14 50 69q32 41 37 74q27 65 52 104q17 11 23 -6q3 -9 3 -17q0 -15 -11 -38q-12 -26 -14 -37q-28 -36 -34 -105q1 -5 3 -27q2 -17 11 -20q14 3 25 10q17 12 21 14q12 12 35 32l12 -8q-6 -29 -23 -43zM203 398l-1 -2q-2 -6 -7 -7q-17 -12 -42 -44
q-2 0 -11 -2q-5 -2 -10 1q-17 10 -4 27q42 22 78 56q6 -6 6 -12q0 -4 -1 -7t-8 -10z" />
    <glyph glyph-name="ugrave" unicode="&#xf9;" horiz-adv-x="312" 
d="M295 50q-13 -11 -31 -29q-26 -15 -44 -15q-27 0 -37 35q-2 3 -4 13q-4 16 -8 16q-1 0 -59 -63q-37 -33 -95 -41q-28 32 -28 75q0 19 6 50q6 36 7 50q15 75 56 146q11 2 24 -7q3 -8 3 -14q0 -8 -8 -22q-10 -18 -11 -22q-16 -47 -38 -130q-2 -25 -2 -43q0 -29 5 -41
q26 4 41 14q1 1 33 26q7 14 50 69q32 41 37 74q27 65 52 104q17 11 23 -6q3 -9 3 -17q0 -15 -11 -38q-12 -26 -14 -37q-28 -36 -34 -105q1 -5 3 -27q2 -17 11 -20q14 3 25 10q17 12 21 14q12 12 35 32l12 -8q-6 -29 -23 -43zM183 364q-5 -3 -10 -1q-9 2 -11 2q-3 6 -23 27
q-7 5 -19 17q-6 1 -7 7l-1 2l1 -1l-6 7q-2 2 -3 4.5t-1 6.5q0 6 6 12q36 -34 78 -56q13 -17 -4 -27z" />
    <glyph glyph-name="ucircumflex" unicode="&#xfb;" horiz-adv-x="312" 
d="M295 50q-13 -11 -31 -29q-26 -15 -44 -15q-27 0 -37 35q-2 3 -4 13q-4 16 -8 16q-1 0 -59 -63q-37 -33 -95 -41q-28 32 -28 75q0 19 6 50q6 36 7 50q15 75 56 146q11 2 24 -7q3 -8 3 -14q0 -8 -8 -22q-10 -18 -11 -22q-16 -47 -38 -130q-2 -25 -2 -43q0 -29 5 -41
q26 4 41 14q1 1 33 26q7 14 50 69q32 41 37 74q27 65 52 104q17 11 23 -6q3 -9 3 -17q0 -15 -11 -38q-12 -26 -14 -37q-28 -36 -34 -105q1 -5 3 -27q2 -17 11 -20q14 3 25 10q17 12 21 14q12 12 35 32l12 -8q-6 -29 -23 -43zM233 366q-5 -5 -10 -5q-12 0 -13.5 15t-4.5 37
q-4 46 -17 75q-22 -17 -34 -48q-1 -4 -7 -11q0 -4 -4.5 -10t-5.5 -8t-6 -6q0 -1 -3 -2l3 2q-5 3 -11 7t-6 11q0 5 4 11q16 28 29 45q6 3 12 11t12 11q12 6 30 0q7 -9 12 -28q6 -23 10 -30v-3q0 -4 3 -5l-1 -6q5 -34 7 -51q0 -3 1 -12z" />
    <glyph glyph-name="udieresis" unicode="&#xfc;" horiz-adv-x="366" 
d="M215 125l-1 -1q-18 -25 -52 -52q-52 -41 -57 -46q-19 -4 -48 -21q-8 -3 -14 -3q-7 0 -17 8.5t-15 10.5q-5 18 -5 36q0 39 28 92l62 128q9 20 25 38q13 -22 13 -42q0 -23 -18 -52q-15 -23 -31 -51q-25 -55 -26 -58q-14 -33 -18 -60l10 -7q23 7 57 32l53 38q72 63 136 182
q9 3 25 -16q1 -2 9 -4q-83 -143 -83 -201q0 -10 2 -20q6 -3 12 -3q10 0 35 15q12 7 20 8q22 12 89 65q10 -3 10 -13q0 -9 -8 -17q-7 -3 -19.5 -19.5t-21.5 -20.5q-3 -1 -54 -38q-32 -23 -61 -23q-14 0 -29 5q-17 23 -17 58q0 26 9 52zM218 127l-1 -1h-1l-1 -1q3 0 3 2z
M227 420q-3 -29 -31 -32q-15 9 -15 15q-2 11 -2 19q0 28 23 28q8 -2 15.5 -4.5t9.5 -11.5v-14zM313 418q-2 -22 -24 -24q-11 7 -11 11q-2 9 -2 15q0 21 18 21q6 -1 12 -3t7 -9v-11z" />
    <glyph glyph-name="dagger" unicode="&#x2020;" horiz-adv-x="223" 
d="M140 311h1l74 2v-20q-34 -7 -101 -31q-21 -28 -43 -82l-35 -85q-16 -47 -23 -87q4 -2 8 -2t7 2q15 4 34 21q23 20 31 25q5 14 23 19l4 -11q-6 -2 -6 -14q0 -15 -7 -21q-21 -20 -43 -39q-29 -24 -49 -24q-34 0 -41 32q-6 29 -8 32q9 45 38 109q37 83 45 107q-33 -6 -61 -6
q-42 0 -75 14q2 6 0 12q-3 9 7 15q23 -4 47 -4q64 0 117 27q8 21 54 115q35 72 49 117q4 13 17 13q18 0 31 -15q-2 -32 -20 -68q-25 -52 -29 -63q-32 -41 -46 -90z" />
    <glyph glyph-name="degree" unicode="&#xb0;" horiz-adv-x="146" 
d="M151 630q1 -1 2 -4q-1 -2 -2 -3q-1 -31 -13 -50q-2 -2 -3 -5l-2 -5q-24 -30 -33 -39q-25 -24 -51 -27q-5 0 -16 2.5t-21 16t-9 26.5q2 41 16 67q9 35 53 67q10 5 28 11q8 2 14 0l5 1q25 -14 32 -45q1 -6 1 -11q-1 -1 -1 -2zM104 664l1 -1l-3 -4q-2 3 -4 3l-5 -2
q-7 -6 -23 -16q-41 -51 -41 -94q5 -19 22 -19q4 0 10 1t14 2.5t15.5 9.5t16.5 20q34 41 27 75q-2 8 -6 15q0 2 -3.5 3.5t-3.5 3.5l-7 3q-4 1 -7 1q-1 -1 -3 -1z" />
    <glyph glyph-name="cent" unicode="&#xa2;" horiz-adv-x="662" 
d="M423 466q92 87 213 122q4 -1 17 1q22 3 30 -13q4 -16 4 -29q0 -22 -11 -38q-3 -14 -35 -52q-4 -6 -13 -16q-14 -10 -39 -34q-21 -14 -67 -40q59 -4 76 -30q32 -29 26 -70q-14 -53 -102 -71q-41 -2 -73 17q4 -27 5 -83l-6 -77q-11 -46 -47 -56q-10 -4 -21 -4q-24 0 -44 14
q-50 34 -72 111q-2 15 -2 32q0 12 1 25h-1q-50 -18 -78 -18q-38 0 -100 24q-12 6 -40 12q-3 7 -3 14q0 9 24 38q16 13 51 33q6 6 29 17q5 6 25 19q-8 3 -24 15q-6 3 -27 21t-55 50q-6 7 -6 15q0 2 9 30q23 25 25 28q15 15 31 22q13 16 33 16q78 0 141 -91l2 2q2 1 4 3
q-4 21 -4 43q0 99 110 189q41 34 92 48q15 -4 12 -20v-6q-5 -35 -16 -60q-12 -47 -35 -78q-2 -9 -7 -13q-10 -21 -32 -62zM482 374h-5q40 12 71 33q9 6 60 47q15 17 42 53q1 5 7 19t6 23q0 6 -2 11q-1 2 -23 6l-1 -1q-32 -6 -125 -54q-42 -30 -64 -57l-33 -41q-5 -1 -6 -4
l-2 -4q32 -16 41 -38q24 0 33 6q0 1 1 1zM381 429q7 23 31 64q4 11 37 69q31 70 38 113h-5q-6 0 -10 -6q-28 -7 -58 -34q-4 1 -6 -2.5t-4.5 -5t-2.5 -2.5l-2 -1l-2 -2q-4 -4 -8 -6q0 -2 -2 -5q-22 -20 -30 -32v-2q-1 -1 -1 -2l8 6q-32 -30 -38 -61q-1 -5 -4 -56q1 -2 5 -7
q1 -1 1 -9.5t5 -6.5q13 3 20 3q5 0 8.5 -1t19.5 -14zM591 304q-13 30 -55 35q-21 2 -69 -2v-1q1 -5 5 -16.5t4 -19.5q0 -31 -29 -55q24 -25 62 -25q29 0 53 12q29 14 35 39q3 12 -6 33zM320 402q-2 -1 -9 -8l-2 -4q-4 -6 -11 -9l-25 -46q-13 -25 -13 -49q0 -41 31 -47
q13 -10 32 -10q10 0 76 21q3 -1 4 4q6 14 20 13q2 -2 4 -2q4 0 8 3l3 3q1 1 2 1q13 11 13 28q0 6 -2.5 13l-7.5 20q-3 2 -12 -1h-4q-3 -1 -6 -1q-9 1 -22 19q8 10 24 13q-10 13 -24 18q-2 -21 0 -32q-24 5 -24 24q0 2 1 5v10q-1 3 -2 4.5t-14 4t-19 8.5l-1 -1q-8 -5 -13 -5
q-3 0 -5 1zM280 400q-10 -4 -14 7q-10 28 -39 51.5t-57 23.5q-10 0 -52 -18q-26 -18 -34 -47q5 -12 20 -24l28 -24q6 -2 8 -7l1 -3q34 -23 84 -33q7 -5 11 -5q13 33 44 79zM418 206l-6 21q-60 -24 -96 -24q-10 0 -19 1q-14 -56 -14 -61q0 -56 43 -95q8 -12 33 -27
q18 -5 35 0q14 4 24 39q0 8 7 25q6 76 -7 121zM230 290q-12 9 -24 9t-26 -9q-4 -5 -15 -9t-13 -7q-5 -8 -14 -8l-39 -31l-16 -12q-11 -10 -10 -14q28 -12 85 -28q59 2 92 19q6 5 16 16q-36 22 -36 74z" />
    <glyph glyph-name="sterling" unicode="&#xa3;" 
d="M407 63q11 7 28 7q7 0 10 -4t-4 -15q-44 -67 -143 -67q-61 0 -131 25q-22 7 -33 11q-3 0 -10 3.5t-22 3.5q-16 0 -22 -8q-13 -16 -31 -16q-6 0 -14 3q-11 9 -11 25q0 8 3 24.5t14 52.5q3 12 23 43q9 13 21 13q8 0 20 -15q0 -3 3 -8l5 25q23 111 39 176q-7 -1 -15 -1
q-6 0 -18 2t-18 2q-11 0 -22 -3q-20 3 -36 19q8 20 24 21q28 2 31 4q15 7 69 13q0 2 13 54l12 49q13 55 25 96q5 21 8 27q11 27 55 27q53 0 82 -28q16 -15 1 -31q-7 -7 -20 -1q-1 0 -32 18q-23 14 -31 14q-14 0 -23 -30q-13 -46 -51 -208q6 1 15 -1t13 -2q32 0 57 -6l10 -11
q0 -9 -7 -17q-20 1 -44 0q-25 -1 -53 -5l-20 -97l-15 -79q-14 -70 -14 -76q0 -14 7 -30q2 -2 10 -5l58 -24q33 -13 61 -13q57 0 123 43zM104 109q-4 1 -8 7l-2 3q-1 3 -4 4q-8 -9 -19 -30v-3q-1 -1 -8 -23v-4q0 -2 -0.5 -5.5t-1.5 -7.5q-3 -9 4 -9q9 0 35 22l1 12q0 10 1 16
q1 2 0.5 5.5t1.5 12.5z" />
    <glyph glyph-name="section" unicode="&#xa7;" horiz-adv-x="441" 
d="M187 403q-7 2 -4 8q-2 8 6 16q3 3 2 5q1 15 25 31q16 -20 10 -44q-2 -6 -6 -21q44 27 128 84q11 -1 19 9q11 -9 11 -18q0 -3 -10 -25q-32 -18 -82 -55q-66 -49 -80 -58q1 -10 -6 -19l-3 -6q-3 -4 -3 -8q0 -3 2 -5q28 5 68 21l68 27q14 5 46 13q9 6 70 16q-7 -6 -16 -24
q-1 -3 -2 -5q0 -16 -16 -24l-1 1q-2 -8 -7 -11q-9 -1 -17 -13l-4 -6q-2 -4 -9 -11h1q13 -4 13 -18q-41 -8 -93 -43q-17 -8 -45 -30.5t-43 -30.5q-3 -3 -28 -21q-13 -9 -5 -19q6 -11 22 -27q14 -2 55 20q25 8 74 29q14 6 50 14q0 -10 1 -20q1 -5 19 -18h-18q-45 -62 -80 -75
q-2 -8 -27 -24l-1 -1q31 -17 49 -15v-17q-7 -1 -14 -1q-26 0 -55 14q-10 -7 -29 -19q-11 -7 -11 -15q0 -2 1 -6t1 -6q0 -5 -8 -9l-6 -6q-4 7 -22 16q-11 6 -11 15q0 5 4 11q1 14 12 25l21 21q-4 4 -9 10q-9 11 -16 6q-11 -10 -36.5 -22t-35.5 -21v-12q-5 -7 -13 -7
q-5 0 -11 2q-2 1 -10 1q0 6 -1 6l-1 2q-35 0 -41 1q-23 4 -30 23q4 27 28 46l43 34q48 40 48 70q0 8 -2 17q13 8 22 44q-18 -9 -54 -16q-13 -2 -24 -2q-23 0 -43 15q-2 18 16 37l33 28q12 2 29 17q14 13 27 22q38 23 46 30q24 21 19 47zM347 312q-13 -5 -34 -11
q-5 -8 -18 -8h-5q-35 -18 -66 -27q-6 -3 -38 -23q-17 -10 -12 -26q53 26 100 55q28 2 53 21q10 10 20 19zM99 254q13 2 49 18q10 30 10 25q-21 -10 -59 -43zM291 88l-4 -2q-9 -5 -20 -5q-3 -5 -13 -7l-2 -1q-5 -8 -20 -16h-1l2 -2l1 -2q23 2 57 35zM137 89q-11 -9 -13 -30
v-4q12 3 30 14q-10 20 -17 20zM85 46l1 1l-1 -1v0zM59 28q13 5 16.5 7t8.5 9q-9 -4 -25 -16z" />
    <glyph glyph-name="bullet" unicode="&#x2022;" horiz-adv-x="265" 
d="M159 217q-52 0 -59 2q-33 6 -41 35q-8 15 -8 30q0 26 38 84q44 11 65 11q39 0 60 -26l-14 -75q-12 -43 -41 -61z" />
    <glyph glyph-name="paragraph" unicode="&#xb6;" horiz-adv-x="936" 
d="M446 -214q-62 0 -110 21q-16 0 -53 23q-8 4 -21 8q0 8 -9 11h-3q-2 1 -4 1q-50 32 -93 96q-6 5 -13 19t-12 18q-20 28 -31 72l-19 76q-7 70 -5 118l5 7q-7 72 39 146l22 7q3 -18 -8 -44.5t-8 -38.5q-13 -46 -13 -100q0 -69 22 -155q11 -14 25.5 -52t29.5 -54
q21 -16 30 -40q110 -104 242 -104q143 0 292 136q91 83 91 227q0 118 -72 210q-12 15 -71 80q-140 84 -275 84q-144 0 -211 -110q-51 -63 -52 -145q2 -25 -1 -75q4 -4 4 -10q0 -5 -4 -13l5 -5q3 -30 16 -107q-16 16 -27 39q-25 82 -25 157q0 105 53.5 182t151.5 112
q58 10 105 10q62 0 105 -14q35 -5 121 -39q15 -6 76 -45q140 -116 140 -311q0 -62 -12 -103q-25 -83 -108 -160q-147 -135 -315 -135z" />
    <glyph glyph-name="germandbls" unicode="&#xdf;" horiz-adv-x="310" 
d="M77 293q-5 -24 -9.5 -48t-20.5 -73q-1 -14 -14 -58q-2 -7 -8 -25q-8 -31 -20.5 -73t-12.5 -49q0 -8 2 -16l-8 -23q-7 0 -14 -3t-10 -4q-3 0 -10 3q-10 8 -10 29q0 8 1 14l1 6q1 7 9 38q11 39 27 102l21 74l36 129q5 20 7 30q11 50 16 60q0 3 1 4v3l2 4q2 5 -3 11
q18 22 23 79q4 39 41 54q11 4 22 5q10 1 19 0t13 -4h33q56 0 97 -26q23 -27 24 -49q-7 -11 -34 -45q-1 -7 -15 -16q-13 -14 -101 -82q-6 -2 -19 -15l-10 -10q-5 -5 -6.5 -5.5t-3.5 -2.5q104 -11 150 -62q16 -23 16 -51q0 -18 -7 -33q-6 -3 -11 -13.5t-11 -13.5l-6 -15
q-21 -19 -61 -59q-41 -28 -102 -50q-37 -13 -58 -13q-7 0 -10 3.5t-1 10.5q2 11 16 27q32 6 34 6q36 18 104 59q57 43 69 94q-27 60 -88 54q-11 8 -31 8q-16 0 -24 7.5l-16 15.5t-8 17q-2 15 9 28q86 55 162 138q12 9 15 28q-25 21 -79 24h-2h-6h8q2 0 4 1q-6 -2 -20 2
q-8 2 -16 3q-47 6 -56 -72q-1 -9 -1 -12q-7 -27 -22 -80q1 -5 -3 -12.5t-4 -9.5z" />
    <glyph glyph-name="registered" unicode="&#xae;" horiz-adv-x="520" 
d="M120 545l-9 3q-9 12 -11 37.5t-7 33.5q-15 117 -12 166q2 24 17 110q5 29 -12 44l6 15q13 0 28 -21q3 -14 3 -28q0 -17 -7.5 -52.5t-6.5 -54.5q-7 -61 9 -175q5 -11 7.5 -35t5.5 -34q-4 -9 -11 -9zM336 177l1 2q16 0 27.5 -16.5t17.5 -17.5q25 -4 45 9q13 13 18 37
q2 14 7 41q-3 4 -1 21q-1 4 -1 26q0 15 -8 26l1 2v0q-9 40 -26 53q-12 -1 -35 -8q-1 -9 -12 -14q-1 -2 0 -5q-3 -4 -10 -12q14 7 25 7q7 0 12 -3q18 1 24 -19q2 -3 8 -17q4 -9 2 -18q3 -9 3 -20q0 -33 -24 -60q-6 -2 -14 -2q-18 0 -48 8l-1 1q-2 -1 -8 -1l1 -6q-1 -5 -4 -14
zM321 369q-11 5 -23 14q-19 13 -35 12q-22 -1 -80 -7q-1 1 -2 1q4 -7 4 -12t-3.5 -8.5t-6.5 -3.5q-6 0 -12 8l-6 12l-1 1q-14 1 -38 -7q-5 1 -9 1q-5 0 -14.5 -3.5t-15.5 -3.5q-4 -6 -20 -8q-5 0 -6 -2h2q8 0 21 -7q46 -9 79 -4q46 7 109 15q6 4 10 3h3q3 0 5 4q17 2 30 -11
q4 4 9 6zM250 37l-2 -4q-17 -17 -46 -18q-42 -1 -50 -4q-11 -2 -17 4l-2 -3q-4 -7 -12 -9q-18 6 -30 23q0 1 -18 33q-29 54 -36 97l-5 29l-29 167q-2 2 -2 18q5 5 12 5q5 0 11 -2l2 2q7 15 19 16q33 17 101 26q4 36 16 56q1 8 6 22q13 22 13 51q0 42 -24 87q0 28 14 35
q10 2 17 -14q-3 -8 -3 -16q0 -5 14 -46q6 -12 6 -26v-2q2 -1 2 -4q1 -13 -7 -50q-2 -9 -2 -21q-4 0 -4 -5t-1 -8q-20 -31 -20 -51v-2q2 0 2 -4q15 0 44 3q4 18 3 41q-2 32 -3 42q5 47 7 54q3 27 15 51q15 60 6 92q-4 15 -26 43q-6 4 -6 12t9 10q18 -5 30 -27q8 -16 10 -18
q12 -43 12 -73q0 -35 -15 -59q-15 -33 -15 -81q0 -14 1 -42v-42q9 0 36 -6q19 -4 51 -25l1 -4v1l3 -2q2 -1 5 -4v-23q-3 0 -6 1q3 -6 3 -15v-3l4 4q6 6 7 15q8 3 12 7l3 3q16 16 44 16q25 0 40 -19q2 -9 11 -26l12 -59q0 -1 2 -17q1 -9 0 -17q2 -13 -1 -34q-4 -26 -4 -34
q-2 -42 -37 -64q-17 -8 -35 -8q-24 0 -39 14q-2 4 -15 18q-10 11 -10 21q0 4 1 8l-7 -22q1 -7 -5 -21.5t-4 -23.5q-8 -7 -13 -22q-6 -18 -10 -23q1 -14 -13 -25l-5 -4q-3 -4 -7 -4q-11 0 -11 11q8 29 34 83q2 14 10 41l-4 5q7 4 8 14q0 2 2 6q15 45 12 109q-6 18 -10 55
q-3 -6 -13 -9q-2 2 -5 2q-4 0 -9 -4q-10 2 -28 -2t-26 -3q-55 -15 -133 -12q-22 5 -66 14q-1 -2 0 -10q2 -9 2 -11q7 -24 6 -30q5 -14 8.5 -46t9.5 -47q8 -97 61 -156q4 -5 10 -9q2 7 10 12q2 0 51 3q31 2 45 15q4 1 8 1q11 0 11 -13q0 -5 -4 -10zM348 254l1 -4v-24l36 -9
q5 0 9 2q12 4 12 41l-2 2q0 4 -1.5 12t-1.5 12q-3 8 -11 10q-7 1 -12 -5q-14 0 -14 -7q0 -3 1.5 -8.5t1.5 -8.5q0 -10 -8 -18q-7 2 -11 5z" />
    <glyph glyph-name="copyright" unicode="&#xa9;" horiz-adv-x="685" 
d="M296 -64q-62 0 -110 21q-16 0 -53 23q-8 4 -21 8q0 8 -9 11h-3q-2 1 -4 1q-50 32 -93 96q-6 5 -13 19t-12 18q-20 28 -31 72l-19 76q-7 70 -5 118l5 7q-7 72 39 146l22 7q3 -18 -8 -44.5t-8 -38.5q-13 -46 -13 -100q0 -69 22 -155q11 -14 25.5 -52t29.5 -54
q21 -16 30 -40q110 -104 242 -104q143 0 292 136q91 83 91 227q0 118 -72 210q-12 15 -71 80q-140 84 -275 84q-144 0 -211 -110q-51 -63 -52 -145q2 -25 -1 -75q4 -4 4 -10q0 -5 -4 -13l5 -5q3 -30 16 -107q-16 16 -27 39q-25 82 -25 157q0 105 53.5 182t151.5 112
q58 10 105 10q62 0 105 -14q35 -5 121 -39q15 -6 76 -45q140 -116 140 -311q0 -62 -12 -103q-25 -83 -108 -160q-147 -135 -315 -135zM434 193l-33 -29q-55 -46 -126 -46q-37 0 -72 16q-56 36 -56 139q48 231 171 300q49 -8 62 -50q3 -9 -3 -17.5t-16 -8.5q-5 0 -11.5 5.5
t-11.5 5.5q-3 0 -7 -2l-36 -33q-21 -19 -27 -39q-16 -20 -36 -73q-20 -28 -24 -69v-74q12 -43 40 -47q8 -1 20 -1q37 0 82 23l77 40l2 1q6 5 15 5q5 0 12 -2q0 -26 -22 -44z" />
    <glyph glyph-name="trademark" unicode="&#x2122;" horiz-adv-x="240" 
d="M169 584q12 8 23 8q6 0 11 -2q-1 -6 2 -9l2 -3q2 -2 3 -5l2 1q13 6 33 11q2 -3 5 -8l3 -3q10 -12 4 -23q-10 -22 -21 -65q3 -2 3 -6t-4 -10l-1 -9q-23 9 -26 20q-1 6 0 17l3 18q8 15 12 30q-19 -10 -26 -10q-10 0 -18 9v2q-1 0 -1 1q-18 -24 -21 -55q-2 -3 -18 -5
q-14 4 -14 18q0 3 11 31q4 10 16 27q-8 -1 -29 -5q0 -8 -10.5 -23.5t-11 -23.5t-16.5 -31q-14 14 -14 29q0 7 21 48q-8 0 -12 1q-12 -4 -18 7q-5 8 -4 21q8 5 16 5q4 0 13.5 -2t14.5 -1q20 1 66 4z" />
    <glyph glyph-name="acute" unicode="&#xb4;" horiz-adv-x="169" 
d="M46 604q34 44 81 50q1 -3 4 -8t1 -11t-9 -7h-1q-6 -1 -7 -5q-30 -18 -39 -26q-21 -19 -32 -40q-8 -3 -12.5 6t-3.5 17z" />
    <glyph glyph-name="dieresis" unicode="&#xa8;" horiz-adv-x="215" 
d="M67 600q-3 -29 -31 -32q-15 9 -15 15q-2 11 -2 19q0 28 23 28q8 -2 15.5 -4.5t9.5 -11.5v-14zM193 598q-2 -22 -24 -24q-11 7 -11 11q-2 9 -2 15q0 21 18 21q6 -1 12 -3t7 -9v-11z" />
    <glyph glyph-name="notequal" unicode="&#x2260;" horiz-adv-x="508" 
d="M357 245l2 -1q10 -3 28 -12q22 -8 67 -21l3 -2q3 -1 7 -7q0 -9 -16 -15l-3 -2q2 -2 2 -5q0 -4 -4 -8q-4 0 -11 -2.5t-11 -2.5q-14 -3 -38 -9h8q-22 -5 -67 -14q-3 -2 -5 -1l-2 -2q-6 -2 -10 -4q2 -6 5 -20q2 -25 11 -74q3 -9 7 -27q3 -3 3 -11q2 -5 -3 -7.5t-10 -1.5
l-4 4l-1 2q-2 2 -6 5l-1 2q-10 12 -34 30q-11 13 -31 39l-21 24q0 2 -2 4l-1 1q-2 0 -4.5 -3.5t-5.5 -5.5l-3 -3l-2 -2q-3 -2 -4 -3v-1q-2 -2 -4 -2q-3 -5 -15 -12l-6 -5l1 2q-14 -10 -46 -27q-1 0 -3 -2l-3 -2q-6 -3 -16 -10l-12 -6q-6 -3 -14 -2q-5 3 -5 8q-12 0 -12 10
q0 7 5 12l1 2q2 4 28 51q2 3 3 5l1 1q5 10 15 28l3 3h-1l1 1v1h1v1q5 7 18 30h-1l-46 31q-15 10 -26 21q-4 6 -16 17q-4 6 -12 19q-2 4 0 6l-3 3q-3 3 -8 5l1 12q8 2 9.5 3.5t9.5 1t9 0.5q12 -4 23 -6q4 0 8 -2q13 -2 38 -7q4 0 12 1q5 -1 12 -1q24 0 36 -1q11 24 22 51
q7 19 24 74q1 7 5 16q12 2 16 -9l1 -1q2 -2 5 -8q3 -11 10 -32q2 0 2 -4l1 -5q0 -2 2 -6q11 -31 22 -67q8 -27 8 -26q4 0 5 -1q24 -3 39 -12v-1q2 0 6 -2q1 0 3 -1zM418 203l2 -1h3q-2 0 -5 1zM173 113l2 2q17 6 33 22q3 -1 4 0l2 1l1 1q8 4 15 3q2 -2 4 -6l4 -4
q12 -12 36 -47l12 -12q4 -9 16 -23q0 10 -4 22q-1 5 -3 11q-3 23 -15 67v11q4 2 5 2q20 14 77 23q16 8 32 8h1q-1 -2 -7 -4q7 2 12 2q-21 10 -62 34l-12 8q-2 0 -5 2l-3 2l-6 2q9 -6 19 -14l-26 16h-1q2 0 -4 1h-1l-2 1q1 0 1 1l-5 -2l-2 2h-1q-7 0 -19 12q-7 17 -11 48
q-10 21 -18 42l-12 -38q-4 -14 -15 -35q0 -11 -5 -16l-4 1q-2 -5 -9 -13q-9 -4 -13 0q-2 2 -2 5h-7l-1 1l-36 3q-8 0 -28 2h-24q1 -1 15 -16l2 -2q17 -13 48 -40l1 -1q7 -7 11 -15q1 -3 4 -3l3 -2l2 -2q3 -6 -6 -32q3 12 3 16v0q-1 -2 -4 -7l-2 -2q-2 -4 -4 -6q-3 -6 -7 -10
q-10 -15 -22 -35q0 -1 -5 -11l-2 -3q15 9 42 23q1 2 7 4h1zM152 77l3 3q1 1 3 1q8 3 19 12l6 5l-1 -1q-3 -2 -5 -2q-9 -4 -23 -13q6 0 -12 -6q-7 -7 -12 -8q-6 -5 -14 -10l-2 -2l14 9l-1 -2q3 2 9 4q2 2 8 5t8 5z" />
    <glyph glyph-name="AE" unicode="&#xc6;" horiz-adv-x="747" 
d="M706 478q-11 8 -64 14q-69 6 -73 7q-45 9 -79 9q-9 9 -26 9q-32 0 -53 8q-11 4 -17 4t-11 -2q-10 -20 -13 -91q5 -7 3 -20q-1 -6 -4 -21q0 -5 5 -10q-4 -24 -4 -44q0 -28 8 -47q94 12 283 39q11 -17 12 -19q0 -4 -4 -9q-25 -24 -113 -31q-68 -5 -181 -32q-3 -7 -3 -13
q0 -5 2.5 -15t2.5 -15q0 -7 -2 -14q0 -8 3 -28t2 -31q5 -9 9 -55q3 -33 24 -33q6 0 14 2q106 25 182 25q60 0 106 -14q12 -4 12 -17t-13 -16q-110 -4 -133 -6q-73 -6 -131 -22q-15 0 -35 -13q-1 -3 7 -10l-15 -12q-3 -5 -3 -10q-11 -5 -17 -5q-12 0 -14 21q-1 12 -8 12
q-4 0 -12 -4q-11 6 -11 17q0 4 2.5 12.5t2.5 12.5q9 4 8 9l-1 13q-2 25 -20 79q1 48 -8 123l-132 -5q-16 -9 -33 -35q-18 -29 -28 -36q-8 -25 -37 -69q-20 -39 -22 -41q-15 -21 -37 -28q-21 1 -21 20q0 11 7 29q18 32 62 91t63 91q-2 7 -2 14q0 12 7 21q42 9 54 37
q14 18 115 181q2 6 7 45q3 27 25 41q40 -3 115 -22.5t112 -23.5q79 -8 131 -20q2 -1 15 -17q-1 -17 -21 -30zM313 406q-4 -8 -19 -23q0 -8 -8.5 -18.5t-8.5 -16.5q-17 -20 -41 -63q10 1 28 -1.5t25 -2.5q6 -1 16.5 3t15.5 4q4 78 -8 118z" />
    <glyph glyph-name="Oslash" unicode="&#xd8;" horiz-adv-x="512" 
d="M602 550q-7 -4 -13 -6l-10 -3q-14 -4 -22 -17h-6q-9 -12 -43 -40q-29 -24 -37 -45q-11 -5 -15 -12l-4 -5q-6 -8 -21 -17q-14 -15 -35 -49q-53 -59 -100 -122q-23 -31 -62 -78q-11 -20 -44 -66q-16 -23 -45 -61q20 -14 48 -14q29 0 53 15q119 55 186 157q46 50 48 142
q-3 6 -3.5 22t-5.5 22l4 15q-1 0 0 0v0q3 -1 23 -6q0 -8 -3 -25q11 -16 11 -32q0 -8 -2 -15q1 -12 0 -25q-2 -23 -2 -26q-15 -85 -99 -165q-99 -95 -179 -115q-18 -5 -43 -5q-26 0 -59 8q-1 -2 -21 -32q-11 -18 -34 -16q1 18 9 37q13 29 14 34q-18 23 -48 73q2 5 2 7
q0 3 -5 8q-4 104 50 216q48 100 129 183q2 0 19 16q34 32 78 32q17 0 31 -6q31 -22 31 -36q0 -5 -1 -10q3 -15 -16 -43q-5 -8 -22 -16q-3 -3 -18 -15q3 23 5 30t5 21q5 21 -10 22q-25 1 -57 -25q-3 -2 -49 -43q-17 -19 -28 -40q-75 -108 -100 -198q-8 -4 -8 -8q0 -1 3 -7
t2 -12q-2 -13 -2 -24q0 -51 32 -83l75 97l80 106q4 5 78 112q9 6 20 23.5t19 23.5l1 6q14 14 76 84q83 93 123 93q5 0 10 -1q14 -16 14 -26q0 -7 -7 -15z" />
    <glyph glyph-name="infinity" unicode="&#x221e;" horiz-adv-x="323" 
 />
    <glyph glyph-name="plusminus" unicode="&#xb1;" horiz-adv-x="847" 
d="M798 227q0 -10 -15 -13q-96 -22 -151 -26q57 -102 119 -165q8 -8 8 -14q0 -11 -10 -13l-232 111l-9 3q-1 -31 -7 -109q-5 -69 -5 -109l-1 -5l-7 -10q-28 14 -54 65l-36 81q-8 19 -27 52q-21 -10 -54 -37q-36 -29 -53 -38q-38 -21 -108 -54q-7 5 -14 22l59 135l29 54
l-105 29q-60 15 -107 14l-7 8q1 2 1 4q0 -5 -3 14q28 17 119 36q37 8 112 34q-21 38 -85 106q-93 102 -95 104l-3 1l-1 11h-1q-2 4 -2 7q0 7 9 10q115 -41 236 -140v5q1 12 -5 40l8 4l-10 8l-37 191q1 4 4 5v1q0 9 12 9q11 0 70 -100l69 -120q17 28 49 74q24 22 63 73l1 2
q-1 5 10 22l1 -1q2 6 8 6q12 0 12 -9q0 -2 -1 -1l3 -5q-2 -34 -26 -172q80 12 128 12q19 0 55.5 -4.5t54.5 -4.5q12 0 15 -13q-2 -12 -13 -18l-143 -74l65 -46q39 -26 72 -32l3 -3v1l1 -1h7q24 0 24 -17zM728 233q-8 3 -23 11q-23 17 -71 46q-19 9 -56 28l6 5q-7 6 -7 12
q0 4 4 8q41 11 139 65q-31 5 -54 5q-92 0 -153 -20q-3 4 -10 12q-7 2 -7 12q26 58 26 129q-58 -57 -85 -112l-18 -35q-3 -1 -5 -1q-4 0 -17 11q-13 44 -104 177q11 -66 35 -198q3 -16 3 -30q0 -9 -1 -17l-9 3q-2 0 -1 -1h-9l-5 6v-1q-1 1 -3 5q-21 32 -88 77q-58 38 -105 58
q107 -117 166 -194v-7q0 -9 -7 -11q-31 -9 -93 -29q-6 0 -19 -4t-20 -3q-22 -4 -66 -16q60 -12 179 -39q10 -3 10 -25l-45 -84q-25 -49 -37 -87l4 1q1 1 15.5 6t46.5 25.5t44 31.5q4 4 14 10q10 14 37 30t42 16h4q13 -22 42 -93q26 -61 47 -90q8 45 4 72q3 7 3 71
q0 70 17 75q57 -23 199 -92l-54 76q-43 62 -43 69q0 3 2 9l1 1v-1q1 7 10.5 7.5t9.5 5.5q69 3 105 14z" />
    <glyph glyph-name="lessequal" unicode="&#x2264;" horiz-adv-x="321" 
d="M275 163q-5 2 -26 12.5t-100 56.5l-14 4q0 7 -9 9l-5 3q-14 15 -54 44q-35 25 -51 48q0 24 13 35q10 8 34.5 13.5t34.5 12.5q46 9 117 15q15 1 27 1q45 0 47 -16q1 -8 1 -13q0 -7 -3 -8q-8 6 -17 6q-7 0 -19 -4t-18 -4q-5 0 -10 2q-4 -3 -16 -2.5t-17 -2.5
q-79 2 -134 -29q52 -56 147 -107l78 -41q18 -10 18 -18q0 -11 -24 -17zM282 102q-150 3 -234 -17q-22 3 -36 19q6 19 24 21q27 3 31 4q43 11 135 11q31 0 77 -11l10 -10q0 -11 -7 -17z" />
    <glyph glyph-name="greaterequal" unicode="&#x2265;" 
d="M164 189q-24 7 -24 18q0 10 18 20l79 45q96 56 149 117q-57 34 -137 31q-4 4 -16 3.5t-17 1.5q-4 -1 -10 -1t-18 4t-19 4t-20 9q-1 -3 -3 -4q-2 0 -5 9q4 -3 8 -5q0 3 1 8q2 18 48 18q12 0 27 -2q72 -5 118 -16q10 -7 34 -13t34 -14q15 -12 15 -40q-15 -23 -52.5 -52.5
t-53.5 -47.5l-6 -3q-8 -2 -9 -10l-13 -4l-102 -63q-3 -2 -26 -13zM402 102q-150 3 -234 -17q-22 3 -36 19q6 19 24 21q27 3 31 4q43 11 135 11q31 0 77 -11l10 -10q0 -11 -7 -17z" />
    <glyph glyph-name="yen" unicode="&#xa5;" horiz-adv-x="740" 
d="M672 240h1q3 -7 2 -9q5 -37 0 -74q-8 -54 -27 -75q-3 -8 -12 -20l-71 -57q-2 -4 -8 -8l-2 -1l-1 -1q-1 -4 -1 -3q-13 -10 -26 -60q-4 -11 -12 -47q-6 -26 -13 -49q-2 -17 -28 -84q-1 -7 -7 -23q0 -5 -12 -15q-12 4 -12 12q0 5 4 13t4 11q46 107 46 212q0 37 -9 53
q-8 27 -22 108q-6 29 -19 104q-1 3 -18 46q1 -7 1 -14q0 -12 -3 -25q2 -4 -3 -9l-3 -3q-2 -2 -3 -2l-2 -2q-4 -4 -8 -6q-40 -2 -55 25q-1 3 -7 8q-4 10 -16 28q0 -10 1 -16q0 -7 -2 -21q-1 -7 0 -21q-9 -28 -20 -38q-3 -6 -17 -15q-4 -2 -8 -2q-8 0 -18 7l-6 5
q-10 11 -22 61q-11 -22 -31 -67q-3 -2 -7 -9l-3 -5l-3 -6q-13 -14 -30 -14q-4 0 -9 1q-9 6 -19 26q-1 9 0 27q-2 8 0 23l1 2l-6 -6q-2 -2 -7 -9q-4 -2 -5 -3l-1 -1l-1 -2q-4 -6 -9 -8l-30 -26q-18 -13 -38 -9q-15 13 -11 52q9 17 24 52l39 51q10 11 38 36q3 5 6 6l2 1l1 1
l14 11q4 3 8 3q7 0 13 -8q-1 -8 -7 -11l-9 -6q-6 -5 -20 -15q-5 -6 -18 -18l-7.5 -7.5t-6.5 -11.5q-10 -8 -21 -25l-18 -27q-3 -6 -12 -29q-1 -3 -6 -16v-18q14 1 29 13l34 33q19 20 28.5 37.5t37.5 46.5q7 1 11 -6l1 -1h-1l2 -10q-6 -3 -12 -16q-7 -17 -9 -19
q-13 -31 -13 -56q0 -20 8 -36q3 -1 8 2q24 31 70 148q4 3 7 3q6 0 10 -10l3 -3q-1 -16 -5 -50l6 -35q6 -22 20 -26q14 8 23 31q3 24 3 49q-2 9 0 26q-3 13 -8 39q6 6 11 6h4l39 -65q6 -6 15 -20l10 -10q8 -5 15 -5q5 0 9 3q7 17 7 34q0 23 -12 44l-9 21q-7 7 -16 28
q1 1 4.5 4t7.5 3q3 0 7 -3q26 -35 32 -40q21 -20 45 -19q20 -2 27 6q2 7 0 11q-6 12 -27 28q-24 18 -30 26l-30 32q-1 3 -1 6q0 8 8 10l57 -18q19 -6 32 -5q37 4 54 24q4 5 0 13q-7 6 -14 8q-10 1 -12 3q-28 0 -24 1q-9 0 -27.5 2t-27.5 2q3 0 6 1h4q-10 2 -15 2l-5 1h1h-1
v0q-12 -2 -14 5l-4 14l64 28q27 13 52 47q7 10 9 15q-2 1 -9 -2t-9 -3q-17 -3 -45 -17q-7 -3 -24 -13q-2 -4 -9 -6q-10 -12 -24 -12q-6 13 -4 20q12 8 48 40q12 13 25 39q-27 0 -72 -40q-2 -2 -26 -21q-6 -5 -21 -19q-7 -7 -17 -15v-1q1 0 4 -1q4 -4 14 -23q0 -27 -21 -55
q-8 -10 -24 -23h-1v0l2 1l-1 2l-1 -3v0v-1q-1 -1 -1 -2q-37 -30 -74 -51q-9 -4 -29 -14q-45 -8 -54 9q-1 1 -5 11q3 29 27 54q6 7 45 41q7 5 26 20q5 4 25 14q10 11 39 21q2 2 2 6l38 35l44 38q26 23 47 33q5 0 16.5 4t17.5 4q5 0 10 -1q12 -10 12 -35q-2 -5 -11 -17l-3 -4
q22 9 39 9q14 0 24 -6q5 -6 5 -12q0 2 -8 -22q-23 -38 -56 -57q-4 -4 -30 -17q47 -3 53 -4q35 -6 43 -24q11 -25 -1 -37q-38 -31 -73 -31q-21 0 -48 9l4 -4q4 -3 12 -12q7 -4 31 -25q15 -25 15 -33q0 -4 -1 -8q-3 -7 -14 -18q-4 -5 -12 -3h-2q-4 -1 -11 -1q-12 0 -34 3
q0 2 -4 2q7 -15 18 -46q3 -24 17 -76q1 -3 12 -69v1q9 32 28 67q3 6 25 30q11 13 46 48q30 29 43 50q13 15 12 20q4 5 9 5q4 0 8 -5q3 -24 11 -69h1v-9zM360 497q-2 0 -4 1h-4q-2 -1 -22 -4q-13 -10 -25 -15q-10 -8 -32 -20l-25 -21l-3 -3q-20 -18 -29 -28q-15 -18 -18 -36
h5q33 0 94 42q54 38 63 73v11zM640 285q1 -8 -10 -27q-11 -12 -71 -72q-9 -13 -28 -38q-1 -5 -8.5 -18.5t-7.5 -20.5q-8 -22 -8 -43v-45q4 -11 11 -34l39 39q2 2 47.5 41t49.5 100q7 29 -7 92q-1 7 -6 25z" />
    <glyph glyph-name="mu" unicode="&#xb5;" horiz-adv-x="778" 
d="M616 629q-5 2 -11 6q8 5 13 10q12 1 22 -5l20 -12q39 -24 34 -73q0 -2 -2 -7t-1 -8q-5 -10 -20 -27q-1 -2 -3 -4q-43 -32 -82 -27q-21 -1 -42 27q-9 12 -12 30q-3 20 1 34q1 6 7 18q2 4 23 23l8 4q2 1 10 3q25 7 35 8zM622 609q2 -5 2 -10q0 -4 -1 -8h-16q0 9 -6 13
q-2 -1 -19 -7q-1 -2 -5 -5l-4 -3l-4 -4l-3 -4q-4 -2 -5 -8l-5 -10q-2 -6 -2 -19q-1 -23 22 -37q3 -1 17 -4q9 -2 17 0q67 18 67 67q0 23 -37 48q2 -4 2 -10q-5 -1 -9 -1q-5 0 -9 2h-2zM627 385q3 13 4 16.5t9 10.5q4 -8 4 -15q0 -4 -2 -8zM714 457q1 0 2 -3q0 -15 2 -44
q-1 -3 2 -16q1 -24 -1 -71q-2 -11 -4 -62q-2 -2 -1 -4l1 -3l-3 -60q1 -3 1 -15q0 -14 -1 -46q1 -2 1 -6v-43q1 -3 -1 -8v-1q0 -43 2 -62q2 -2 1 -8l-2 -2q-4 -7 -9 -7q-3 0 -6 2l-3 -1h-5l-8 8l-3 26l-1 4v7q0 94 -19 189q-5 4 -13 15l-2 12q-9 56 -6 97l1 3q0 2 2 9
q1 5 0 8q4 16 11 36q2 13 23 46q2 4 9 11q23 0 30 -11zM692 118v15q-1 39 1 82q3 65 3 81l1 80q2 12 0 36q-2 25 -2 35q-3 -3 -21 -37l-3 -11q-1 -3 -4 -11q0 -2 -2.5 -8.5t-1.5 -8.5v-6q0 -3 -2 -6q-4 -19 0 -57q1 -13 7 -51v-1q5 -3 9 -6l1 -1l2 -1q1 -10 4 -26
q2 -33 8 -98zM393 510q16 -3 47 -8q2 -1 6 -1q23 -5 69 -11q-7 0 16 1q20 1 28 -12q1 -5 -8 -21q-6 -6 -11 -4h-3l-5 -1q-3 1 -11 4q-10 0 -75 5q-5 0 -26 2q-28 2 -50 0q-2 1 -6 1h-6q-4 1 -13 -1q-4 1 -22 3q-22 2 -32 -3l-24 -16q-5 -2 -16 -9q-19 -8 -31 -3
q-40 15 -40 46q-1 9 10 42q23 30 53 30q10 -3 24.5 -14t20.5 -13q63 -17 99 -17h6zM258 521q2 -4 0 -9l-5 -3h1l-1 -1h-1q-4 0 -10 3l-1 1h-2q-16 -3 -29 -29q0 -7 2 -14l-3 -5q14 -9 19 -7q24 8 40 19l1 1l-4 -1q12 7 37 16q20 -2 58 -3h12l-1 1q-17 1 -48 5q-15 5 -45 14
q-4 1 -20 12zM175 407l2 8q-1 -31 -8 -87q-2 -8 -23 -31q1 -5 2 -13q-2 -18 -8 -58q-1 -6 -2 -24l-3 -2l1 -2q1 -5 -2 -9q1 -3 1 -13q-1 -5 -1.5 -14.5t-1 -13t-1.5 -6.5q2 -4 0 -9q0 -6 -1.5 -16.5t-1.5 -16.5v-6q0 -9 -2 -28q1 3 3 7q-5 -31 -5 -40v-14q-1 -7 -1 -9
q0 -9 5 -14q1 -6 -2 -9h-1l1 1l-7 -4q-23 3 -30 25q-2 11 -2 44v52q-5 70 -11 183q-22 9 -29 19q-4 6 -7 35q1 4 1 42q0 26 9 40l-1 1q0 16 12 15q6 -2 8 -10v-3q0 -32 6 -59v-2q13 51 15 86q2 6 6 6q2 0 5 -2h1q9 -5 11 -17t3 -23q-1 -4 1 -11t2 -10q0 -11 2 -33
q14 18 18 33q5 8 8.5 28.5t7.5 26t11 2.5l2 -1q2 -6 5 -16l-1 -6q0 1 1 1v-1q2 -7 2 -22zM127 311l2 1l3 3q4 1 5 4q7 8 14 24q1 19 2 32q-4 -9 -21 -34q-5 -5 -16 -13q-7 -3 -11 4h2l-6 4q-2 10 -2 16.5t-1 21.5q0 -3 -1 -5l-1 -1v-3q0 -5 -2 -7v-3q-1 -2 -1 -3h-1l1 -4
q-3 -6 -7 -18v-1q-3 -7 -8 -7q-3 0 -7 2h1l-5 2q-2 2 -5 12q0 -9 2 -20q8 -9 21 -9l8 -4l2 -2q1 0 4 -2q0 -29 -1 -34l8 -118q-1 -8 0 -21q2 -15 2 -20v-12q5 57 14 170q-2 6 -2 8v2h1l-1 4l-1 1q-5 2 -6 5t-1 6q0 4 3 8q2 0 2 1v2l2 6q4 2 8 2zM183 231l-1 -4l1 6v-2z
M545 262q-1 -11 -4 -32q0 -7 -2 -22q1 -1 1 -4q0 -1 -1 -4q1 -10 -5 -28l-1 6q-2 -20 -2 -14l-3 -2l-5 -6l3 2q-17 -33 -41 -53q-10 -5 -29 -17q-5 -5 -19 -12q-6 -2 -28 -12l1 1l-36 -9q-6 2 -11 0q-26 -2 -40 2q-30 9 -35.5 9.5t-8.5 4.5q-20 7 -42 40q-1 6 -6 17
q-7 27 -7 58q0 38 10 60q6 13 10 24q15 24 46 51q13 9 36 21q6 3 12 7q16 6 49 14q5 0 33 5q8 1 23.5 -3t21.5 -4q73 -26 81 -102zM243 182q0 1 2 4l2 5q-4 -21 -2 -34v-6q0 -4 2.5 -12t2.5 -12q13 -34 49 -45q13 -4 44 -8q15 1 46 7l2 2h1h2q1 0 3 2q37 10 72 49
q31 36 46 75q4 8 4 12q-2 35 -16 62q-17 32 -33 47q0 -2 -3 -5l-4 -4h-2v1l-4 -5q-3 -1 -6 -1q-6 0 -12 6l7 7l3 2l3 3v1l-1 2q-3 2 -15 7l-29 3h-7l-39 -9q-11 -3 -39 -18q-23 -13 -48 -41q-3 -3 -5 -7l-3 -3l-8 -16l1 5l-1 -1v-2q0 2 -9 -25q0 -1 -2 -7l-1 -3q0 -1 -1 -5
q-4 -18 -2 -33z" />
    <glyph glyph-name="mu" unicode="&#x3bc;" horiz-adv-x="778" 
d="M616 629q-5 2 -11 6q8 5 13 10q12 1 22 -5l20 -12q39 -24 34 -73q0 -2 -2 -7t-1 -8q-5 -10 -20 -27q-1 -2 -3 -4q-43 -32 -82 -27q-21 -1 -42 27q-9 12 -12 30q-3 20 1 34q1 6 7 18q2 4 23 23l8 4q2 1 10 3q25 7 35 8zM622 609q2 -5 2 -10q0 -4 -1 -8h-16q0 9 -6 13
q-2 -1 -19 -7q-1 -2 -5 -5l-4 -3l-4 -4l-3 -4q-4 -2 -5 -8l-5 -10q-2 -6 -2 -19q-1 -23 22 -37q3 -1 17 -4q9 -2 17 0q67 18 67 67q0 23 -37 48q2 -4 2 -10q-5 -1 -9 -1q-5 0 -9 2h-2zM627 385q3 13 4 16.5t9 10.5q4 -8 4 -15q0 -4 -2 -8zM714 457q1 0 2 -3q0 -15 2 -44
q-1 -3 2 -16q1 -24 -1 -71q-2 -11 -4 -62q-2 -2 -1 -4l1 -3l-3 -60q1 -3 1 -15q0 -14 -1 -46q1 -2 1 -6v-43q1 -3 -1 -8v-1q0 -43 2 -62q2 -2 1 -8l-2 -2q-4 -7 -9 -7q-3 0 -6 2l-3 -1h-5l-8 8l-3 26l-1 4v7q0 94 -19 189q-5 4 -13 15l-2 12q-9 56 -6 97l1 3q0 2 2 9
q1 5 0 8q4 16 11 36q2 13 23 46q2 4 9 11q23 0 30 -11zM692 118v15q-1 39 1 82q3 65 3 81l1 80q2 12 0 36q-2 25 -2 35q-3 -3 -21 -37l-3 -11q-1 -3 -4 -11q0 -2 -2.5 -8.5t-1.5 -8.5v-6q0 -3 -2 -6q-4 -19 0 -57q1 -13 7 -51v-1q5 -3 9 -6l1 -1l2 -1q1 -10 4 -26
q2 -33 8 -98zM393 510q16 -3 47 -8q2 -1 6 -1q23 -5 69 -11q-7 0 16 1q20 1 28 -12q1 -5 -8 -21q-6 -6 -11 -4h-3l-5 -1q-3 1 -11 4q-10 0 -75 5q-5 0 -26 2q-28 2 -50 0q-2 1 -6 1h-6q-4 1 -13 -1q-4 1 -22 3q-22 2 -32 -3l-24 -16q-5 -2 -16 -9q-19 -8 -31 -3
q-40 15 -40 46q-1 9 10 42q23 30 53 30q10 -3 24.5 -14t20.5 -13q63 -17 99 -17h6zM258 521q2 -4 0 -9l-5 -3h1l-1 -1h-1q-4 0 -10 3l-1 1h-2q-16 -3 -29 -29q0 -7 2 -14l-3 -5q14 -9 19 -7q24 8 40 19l1 1l-4 -1q12 7 37 16q20 -2 58 -3h12l-1 1q-17 1 -48 5q-15 5 -45 14
q-4 1 -20 12zM175 407l2 8q-1 -31 -8 -87q-2 -8 -23 -31q1 -5 2 -13q-2 -18 -8 -58q-1 -6 -2 -24l-3 -2l1 -2q1 -5 -2 -9q1 -3 1 -13q-1 -5 -1.5 -14.5t-1 -13t-1.5 -6.5q2 -4 0 -9q0 -6 -1.5 -16.5t-1.5 -16.5v-6q0 -9 -2 -28q1 3 3 7q-5 -31 -5 -40v-14q-1 -7 -1 -9
q0 -9 5 -14q1 -6 -2 -9h-1l1 1l-7 -4q-23 3 -30 25q-2 11 -2 44v52q-5 70 -11 183q-22 9 -29 19q-4 6 -7 35q1 4 1 42q0 26 9 40l-1 1q0 16 12 15q6 -2 8 -10v-3q0 -32 6 -59v-2q13 51 15 86q2 6 6 6q2 0 5 -2h1q9 -5 11 -17t3 -23q-1 -4 1 -11t2 -10q0 -11 2 -33
q14 18 18 33q5 8 8.5 28.5t7.5 26t11 2.5l2 -1q2 -6 5 -16l-1 -6q0 1 1 1v-1q2 -7 2 -22zM127 311l2 1l3 3q4 1 5 4q7 8 14 24q1 19 2 32q-4 -9 -21 -34q-5 -5 -16 -13q-7 -3 -11 4h2l-6 4q-2 10 -2 16.5t-1 21.5q0 -3 -1 -5l-1 -1v-3q0 -5 -2 -7v-3q-1 -2 -1 -3h-1l1 -4
q-3 -6 -7 -18v-1q-3 -7 -8 -7q-3 0 -7 2h1l-5 2q-2 2 -5 12q0 -9 2 -20q8 -9 21 -9l8 -4l2 -2q1 0 4 -2q0 -29 -1 -34l8 -118q-1 -8 0 -21q2 -15 2 -20v-12q5 57 14 170q-2 6 -2 8v2h1l-1 4l-1 1q-5 2 -6 5t-1 6q0 4 3 8q2 0 2 1v2l2 6q4 2 8 2zM183 231l-1 -4l1 6v-2z
M545 262q-1 -11 -4 -32q0 -7 -2 -22q1 -1 1 -4q0 -1 -1 -4q1 -10 -5 -28l-1 6q-2 -20 -2 -14l-3 -2l-5 -6l3 2q-17 -33 -41 -53q-10 -5 -29 -17q-5 -5 -19 -12q-6 -2 -28 -12l1 1l-36 -9q-6 2 -11 0q-26 -2 -40 2q-30 9 -35.5 9.5t-8.5 4.5q-20 7 -42 40q-1 6 -6 17
q-7 27 -7 58q0 38 10 60q6 13 10 24q15 24 46 51q13 9 36 21q6 3 12 7q16 6 49 14q5 0 33 5q8 1 23.5 -3t21.5 -4q73 -26 81 -102zM243 182q0 1 2 4l2 5q-4 -21 -2 -34v-6q0 -4 2.5 -12t2.5 -12q13 -34 49 -45q13 -4 44 -8q15 1 46 7l2 2h1h2q1 0 3 2q37 10 72 49
q31 36 46 75q4 8 4 12q-2 35 -16 62q-17 32 -33 47q0 -2 -3 -5l-4 -4h-2v1l-4 -5q-3 -1 -6 -1q-6 0 -12 6l7 7l3 2l3 3v1l-1 2q-3 2 -15 7l-29 3h-7l-39 -9q-11 -3 -39 -18q-23 -13 -48 -41q-3 -3 -5 -7l-3 -3l-8 -16l1 5l-1 -1v-2q0 2 -9 -25q0 -1 -2 -7l-1 -3q0 -1 -1 -5
q-4 -18 -2 -33z" />
    <glyph glyph-name="partialdiff" unicode="&#x2202;" horiz-adv-x="485" 
d="M433 73q-4 -4 -11 -12l-62 -48q-38 -29 -71 -29q-16 0 -32 7q-34 20 -42 69l-6 84q-21 -30 -72 -83q-8 -17 -27 -32q-29 -22 -33 -26q-9 -3 -18 -3q-16 0 -34 7q-14 12 -15 34q1 -20 1 39q8 38 41 88l54 81q5 3 44 40q26 25 51 25q14 0 28 -8q10 -15 13 -34q16 48 54 143
q6 13 24 46q17 29 30 54q7 11 21 11q18 0 18 -16q0 -24 -36 -105q-31 -68 -52 -104q-3 -12 -15.5 -35t-15.5 -37q-25 -62 -25 -118q0 -26 5 -51q19 -40 40 -44q26 6 58 26l53 35q19 12 46 22q-3 -17 -14 -26zM205 267q-13 0 -32 -19t-31 -24q-47 -49 -83 -134q-7 -12 -7 -29
q0 -9 2 -20q22 6 45 30l39 40q29 38 83 115q-10 4 -13 18q-1 11 -3 23z" />
    <glyph glyph-name="summation" unicode="&#x2211;" horiz-adv-x="601" 
d="M367 384zM582 579l-3 -4q-5 -5 -6 -12q-4 -4 -9 -4l-2 1q-9 7 -9 13q1 2 6 15q13 13 35 19q-3 -19 -12 -28zM602 493q-4 -4 -8 -4q-6 0 -11 9q-2 6 3 15q4 2 36 7q6 -1 13 -13q-5 -6 -14.5 -8.5t-18.5 -5.5zM483 558q-12 13 -6 34q2 8 13 14q9 -8 8 -15q-2 -11 -2 -12
q2 -7 6 -23q-5 -6 -9 -6q-6 0 -10 8zM623 440l2 1q1 0 2 -1h4q8 -2 11 -7q2 -11 -7 -11t-31 -3q-5 -1 -7 1l-2 1q-4 6 -4 11t4 8q8 1 25 2q2 -2 3 -2zM334 558q-7 -10 -7 -11l-8 -6h-2q-7 0 -9.5 4.5t-2.5 7.5q0 6 4 11q20 20 32 20q4 0 6 -4l1 -1q-5 -16 -14 -21zM231 596
l3 -5q0 -2 -4.5 -10.5t-2.5 -10.5q5 -5 5 -12q0 -3 -1 -6q-5 -2 -9 -2q-7 0 -17 18q-5 26 16 34q9 4 12 -7zM123 604v-1q-1 -10 -12 -7q-11 9 -13 24q4 12 12 13l10 -1v-16q0 -3 5 -7q-2 -4 -2 -5zM203 79l-1 -2q-3 -3 -11 -9v-1l21 16zM212 95q0 -5 -3 -9q5 3 10 5l-3 2z
M392 428q-4 -2 -7 -2q-5 0 -9 5q1 27 19.5 49.5t45.5 27.5q9 3 25 9q7 1 21 4q7 0 11 1q0 3 3 6q6 8 21 8q7 0 17 -2q16 -9 17 -21q1 -10 -6 -13q-3 -3 -7 -3q15 -28 15 -54q0 -20 -10 -37q-7 -24 -44 -33q-11 1 -24.5 11t-18.5 11q-1 -1 -5.5 -3t-4.5 -3l-6 -9
q22 -18 36 -34q23 -13 32 -44l10 -55q4 -23 -5 -58q1 -19 -29 -64q-2 -1 -2 -4q-21 -29 -69 -51q-1 0 -5 -2q-3 -1 -5 0q-22 -9 -36 -8q5 -16 10 -46q-4 -4 -7 -4h-3q0 2 2 2h-9l-43 45q-31 0 -84 23q-5 -3 -15 -8q-1 -1 -3 -2l-2 -2l-10 -5l-6 -5q-7 -6 -13 -7
q-2 -2 -13.5 -11t-11.5 -17q-11 5 -12 6q-6 5 -7 11q13 26 38 51q0 3 5 8q5 2 5.5 3t1.5 2q-29 18 -41 38q-22 29 -22 73q0 48 25.5 99t64.5 75q-3 6 -5 6q-4 -2 -16 -7.5t-20 -4.5q-20 -4 -29 5q-20 27 -20 58q0 20 10 37q3 7 11 19q-3 6 -3 14q2 7 13 13v1q1 4 7 10
q15 4 20 1q8 -5 6 -14q6 2 8 1q31 8 57 -10q9 -7 23.5 -24.5t23.5 -24.5q8 -12 6 -25q-11 -4 -32 -14q-8 -4 -23 -17q-5 -5 -10 -11q45 19 59 19q25 -1 44 -3q25 -3 41 -16q19 -3 38 -12l1 3q0 1 1 2v1l-2 1q-6 2 -8.5 7t-5.5 14zM406 91q51 15 90 86v1v0l-3 -6
q-3 -6 -8 -11q-6 -12 -6 -10l-30 -33q-11 -11 -32 -22q-4 -1 -11 -5zM353 55v1l-1 2h-2zM453 485l1 3q4 3 12 7q-13 -3 -21 -6q-23 -9 -34 -23q-4 -12 -8 -16q18 -8 54 -26q2 -3 15 -3q5 -1 8.5 -6.5t22.5 -18.5q14 1 25 16q0 2 2 4l2 5q2 5 2 6q4 10 4 21q0 22 -16 41
q-14 7 -12 7q-6 3 -25 3h-1q14 -6 14 -14q0 -3 -2.5 -6.5t-6.5 -3.5q-3 0 -6 3l-1 1q-8 1 -18 -6q-2 -1 -7 -5l-1 -2l-5 -5q-8 5 -8 11q0 2 2 5l2 2q4 5 5 5zM196 484q-1 0 -2 -1q-7 -17 -10 -37l1 -3q1 -5 -2 -11q-8 0 -15 13q2 43 15 54l-7 -3q-5 -9 -16 -26q-3 -3 -3 -5
l-1 -2h1q-3 -12 -3 -23q0 -21 12 -35q6 -3 17 0q25 7 62 27h1l3 3q4 8 12 5q18 11 30 15l-2 2q-8 5 -22.5 24t-25.5 24q-16 3 -32 3q-8 -1 -19 -6q2 0 4 -1q8 -3 7 -12zM210 239l-5 -1h-17q-10 0 -11 2q-3 -13 -5 -23q2 -44 13 -65q23 -32 56 -47q3 0 8.5 1t8.5 1q4 -4 4 -6
q29 -7 53 -7q9 0 18 1h12q2 0 4.5 2.5t5.5 2.5q2 0 5 -2q36 9 55 21q48 31 73 85q12 38 10 54q-3 24 -22 60q-4 12 -27 22t-24 13l-1 1q-2 1 -3 0q-1 1 -6 5t-6 4q-5 5 -9 14l3 1l-6 3h-3v1l-8 -1q2 0 4 -2h-5q-3 5 -15 5h-3v0q-1 -2 -4 -4l-9 2q-1 4 -9 5h-15l-6 4
q-3 3 -3 6q-3 0 -31 -4q-4 -1 -43 -17q-26 -11 -39 -35v-1q0 -3 -3 -6q-15 -43 -23 -75q6 -1 17 1q14 -3 21 -14q-2 -11 -10 -8h-1zM453 318q11 -1 13 -12q-3 -7 -14 -11l-6 -2h1l-2 -2q-3 -2 -5 -2q-5 0 -9 6q-1 5 4 10t18 13zM402 340q-2 -2 -6 -7q-9 -10 -13 -10t-9 3
q3 25 24 36q7 2 12 -7v1l1 -10zM472 222l-2 -1q-22 0 -36 8q6 11 25 14q7 -1 11.5 -3.5t5.5 -7.5q0 -6 -4 -10zM258 347q-12 8 -12 17l2 5v1l1 1q2 4 7 4q2 0 6 -2l12 -14q6 -7 6 -19q-4 -2 -7 -2q-5 0 -7.5 3t-7.5 6zM413 180q-1 6 3 9t10 2q15 -9 16 -27q-6 -3 -11 -3
q-7 0 -9.5 6t-8.5 13zM288 243q0 19 7 55q8 40 9 56q2 8 14 18q5 10 13 10q6 -3 12 -21q1 -10 2 -31q-5 -45 -20 -67v-1q-1 -2 -6 -17q5 -5 7 -14q-7 -3 -18 -12q-4 -1 -7 0l-2 -2q-6 -5 -21 -14l-1 -1v1l-1 -2l-26 -19q-2 -2 -17 -6l-16 -4q-31 2 -27 21q18 14 28 18
q4 4 8 6l4 2q2 0 4 2q21 12 54 22zM311 284l3 6q7 28 8 46q-6 -29 -6 -28l-2 -11q-1 -7 -3 -13zM243 299q-5 0 -15 4.5t-16.5 4.5t-6.5 9q0 13 8 13q23 0 33 -22q2 -9 -3 -9zM380 130q-11 18 6 22q20 -14 17 -34q-5 -3 -9 -3q-5 0 -8 5zM326 121q-5 -8 -4 -14l-6 -3
q-3 -2 -11 0q-3 7 -3 12q0 9 9 15q3 3 5 4l3 1l9 -3q-2 -16 -2 -12zM270 141l-16 -10q-6 -3 -6 -9q-3 -10 -13 -10q-7 2 -7 12q0 5 2 12l6 7q16 11 38 12zM135 497q-4 -3 -8 -3t-6 3l-2 1q-4 5 -27 7l-5 3q-13 0 -11 11q0 13 13 11q19 -4 27 -7q15 -6 21 -16zM75 437l-3 -6
q-5 0 -22 6q-13 5 -21 3l-8 3q0 13 7 16l4 2q11 2 29.5 -6t13.5 -18zM132 112l-2 2q0 1 -2 1q-24 20 -33 65v4q2 10 10 10q5 0 14 -16q0 -33 23 -52q6 -4 18 -14q2 -2 6 -10q-5 -2 -9 -2t-6 2l-8 4l-3 1q-2 0 -8 5z" />
    <glyph glyph-name="product" unicode="&#x220f;" horiz-adv-x="502" 
d="M336 638l2 2q6 8 18 12q5 -9 2 -15l-1 -2q-12 -18 -18 -28q-4 -28 -4 -20q-4 -3 -9 -3q-8 0 -12 9q0 11 7 22q4 5 21 37q-3 -10 -6 -14zM381 546q-5 0 -12 -2q-2 0 -12 -5q-6 -4 -11 0q-7 5 -5 13q2 7 10 9q26 6 44 -1l13 -12q-16 -1 -27 -2zM287 575q-11 1 -15.5 13
l-8.5 23q-2 10 0 28q12 -9 16 -20l2 -3q5 -17 13 -28q-1 -7 -7 -13zM361 471l-3 2q-2 0 -10 3q-8 7 -8 14q0 6 8 8q9 -4 29 -21q-6 -8 -11 -8q-3 0 -5 2zM332 177l1 -1v1h-1zM313 137q1 2 3 3l12 32q0 3 1 4v1q-12 4 -18 4q-2 1 -5 1q-9 -13 -9 -24q0 -10 7 -15q4 -3 9 -6z
M310 131h1v0l-1 1v-1zM202 90q1 0 0 1v-1zM372 317q1 -4 3 2zM369 314l3 3v1zM221 472v-1q0 -2 1 1h-1zM100 205l7 5l53 33q12 7 51 25q0 -1 7 27q-17 0 -23 6q0 11 8 11q12 4 23 4q6 16 9 30q1 6 5 13q0 4 2.5 9t2.5 7q10 26 14 39q-22 0 -30 3q-2 0 -11 4h-1l-3 3v-1
l-1 -1q-4 -4 -7 -2l-3 -9q-2 -6 -6 -13v-3q0 -3 -2 -6q0 5 -4 -11l-6 -5l-3 2v0q1 -3 -1 -20q-1 13 -3 24v3v7l-24 -46q-9 -17 -14 -31v-3l-1 -2q-1 -2 -2 -3q-7 -24 -18 -47q0 -3 -3 -8q-11 -27 -16 -44zM221 135v0l1 2q-1 0 -1 -2zM267 184q-4 1 -10 5h-16l1 -1l-1 -2
q0 -5 -3 -8q0 -13 4 -17q1 -2 7 -11q5 10 18 34zM220 189q0 1 1 2q2 5 6 14q11 4 24 4q10 0 22 -3q2 -1 4 -3l1 3q9 20 25 83q3 26 3 42q0 13 -2 20q-4 0 -9 -4q-8 -5 -9 -5q-11 -10 -29 -32q0 -6 -5 -16t-5 -14v-8q1 -2 1 -3q3 -11 -3 -14h-6q0 -1 -1 -1l-1 -1
q-12 -28 -15 -54l-1 -2zM233 143q2 -6 6 -15l1 1l1 4q-3 4 -8 10zM218 160l2 2q-1 5 -2 9v-11zM277 160q-1 -3 -3 -5q-3 -9 -7 -15l-2 -3v-2q-1 -1 -1 -2l-5 -8q-1 -6 -5 -12l-2 -4q6 2 14 3q5 1 13.5 -2t11.5 -3q39 -20 61 -16q7 5 18 16q2 4 1 5v1q-3 0 -7 -4q-2 -8 -8 -9
q-9 -11 -18 -4q-4 5 -2 10q-4 2 -13 7q-2 -1 -10 -3q-9 1 -33 12q-4 9 -4 15q0 4 2 6l2 1q-3 7 -3 16zM324 303q0 -7 -2 -17v-3q-3 -17 -9 -34q0 -2 -1 -7l-1 2q-7 -17 -10 -29q-2 -6 -6 -15v-1q5 2 11 2q9 0 21 -3q2 -1 8 -3q3 12 10 36v1q0 4 8 68q2 19 -5 30h-1
q-8 -5 -13 -17l1 -1q0 -2 -1 -10q-6 -1 -10 1zM254 339q36 41 60 29q10 -7 12 -31l1 2l3 3h-1l3 3q13 8 19 6q6 -3 17 -16q0 -5 4 -17l4 6q-1 -3 -1 -5q3 4 9 7t13 3q5 0 11 -2q13 -9 14 -26l2 -33q-1 -7 -2 -19l1 -2v-9q0 -1 -2 -13q-1 -7 0 -12q-3 -15 -7 -41q4 1 9 -2
q7 -10 9 -28q1 -12 4 -32q-3 -9 3 -24q1 -10 0 -37q0 -9 -4 -18q-3 -12 -17 -33q-6 -8 -16 -23q-4 -4 -8 -10q-1 -1 -3 -3.5t-3 -3.5v-1l4 1q-6 -5 -17 -15q-1 -3 -6 -8q0 -3 -4 -5l-1 -1q-13 -19 -24 -24q-3 -2 -6 -5q-8 -1 -27 6q-2 7 7 15l14 1q25 17 57.5 64.5
t34.5 74.5q-3 76 -9 93l-2 -4q-4 -24 -17 -24q4 -7 2 -16q-1 -2 -4 -24q-2 -14 -16 -16q-6 1 -19.5 -3.5t-20.5 -4.5q-4 6 -5 8h-1q-2 4 -4 2h-1q-6 1 -43 17h-18q-7 -4 -22 -11h-1q21 -19 33 -36q7 -15 6 -26q1 -5 0 -8l-1 -3q-3 -3 -3 -11l-2 -3v1q0 -3 -3 -7
q-6 -13 -20 -39l-17 -21.5t-19 -15.5q-7 0 -12 5q2 10 11 18q3 3 19 22l14 25q14 29 14 39q0 15 -20 33q-8 8 -21 17q-8 0 -11 -3l-5 1v-1q-2 0 -6 1q-12 2 -12 14q0 6 7 10q4 -1 10 -1l1 2v1q5 2 18 1q2 2 5 3h2q1 -1 3 1t6 4q-9 7 -16 25l-5 -3h2q-5 -1 -9 1q-7 16 -6 21
q-2 23 0 35q0 14 9 54h-15q0 -2 -1 4q-37 -15 -117 -74q-7 -7 -16 -13q-19 -19 -25 -48l-3 -9q1 -7 0 -14q1 -2 1 -5v-5q0 -7 2 -18q3 -14 3.5 -20t1.5 -6v-4q3 -13 8 -41q2 -4 4 -16q8 -18 18 -25l1 -2l1 1q5 2 8 0q6 -2 8 -13q9 -4 30 -21q-6 -5 -16 -5q-4 0 -9 1
q1 -10 3 -18q1 -1 1 -3v-4q2 -2 2 -6v-12q0 -9 -10 -21q-6 12 -10 35q-3 16 -9 37q0 7 -8 12q-21 14 -30 45l-10 54q-5 26 -10 80q3 12 12 35q5 10 15 22l-6 -2l55 42q-5 2 -9 5q-2 9 2 17l2 6q0 1 1 3v2q4 7 8 20q9 15 22 51q3 8 21 49l10 20.5t30 51.5l-9 -7
q-10 -5 -16 -11l-7 -7q-4 -4 -8.5 -7t-12.5 -13q-3 -1 -3 -2l-2 -2q-5 -5 -9 -5l-23 -19q4 9 15 29l4 6q6 7 17 18q32 29 46 40l-2 1q-14 7 -29 23t-15 29q0 7 5 14q8 3 15 3t31 -10l9 -6q2 5 2 10q-1 16 12 40l4 3q4 4 7 4q13 -1 19 -20q0 -13 -4 -41v-7l48 50q31 32 44 31
q9 -5 11 -17q-1 -12 -6 -24q-7 -20 -22 -59q0 -1 -21 -58q-2 -7 -7.5 -22.5t-15.5 -46.5zM237 474l-1 -2q-5 -6 -15 -19q-3 -9 -3 -10q19 -8 35 -8q7 0 13 2l1 2l4 10q13 33 34 93q-12 -8 -33 -31q-2 -2 -10 -7q-9 -8 -23 -29q-1 -1 -2 -1zM203 484l4 35l-3 -4v-7
q-2 -16 -1 -24zM184 469q-11 18 -40 22l1 -1q4 -4 4 -8q21 -23 38 -23q0 7 -3 10zM347 168l-8 -32l1 8v-1l-2 -2q-1 -4 -3 -10v-2q4 -3 13 -5q4 4 7 6q-2 3 -1 7q-2 3 -5 6v4q-1 9 8 10l-2 2q-3 1 -6 6l-1 1zM400 212q3 23 3 42q0 28 -3 54q-2 1 -5 0q-15 -10 -19 -22
q-4 0 -6 -2v-2q-1 -17 -5 -51q0 -5 -2 -8l-3 -31v13q-4 -10 -5 -17q7 5 15 13h1l15 10q6 4 14 2v-1zM371 171l2 -2q10 -7 17 -9q3 6 8 33q-2 -1 -3 -1v1l-4 -2h1l-1 -1q-3 -3 -6 -3q-5 -4 -18 -13l-1 -1q2 0 5 -2z" />
    <glyph glyph-name="pi" unicode="&#x3c0;" horiz-adv-x="354" 
d="M227 130q-32 -23 -73 -45l-76 -40q-21 -11 -62 -35q-33 -21 -39 -58q-5 0 -8 -11q0 -5 -3 -9q-4 -11 -42 -76q-26 -45 -33 -77q-11 -26 -17 -78q-5 -10 -6.5 -37t-9.5 -42q-25 11 -25 27q0 3 1 8q1 0 2 1l-1 2q-3 6 -2 10q0 71 30 141l63 144q-9 3 -9 16q0 7 1 11l1 4v6
l51 42q14 25 50 104q29 63 52 102q28 0 37 -26q-8 -27 -33 -71q-28 -48 -36 -69q112 44 193 120v9q13 3 37 37q4 14 -19 29q-183 10 -235 -84q-2 -4 0 -11q3 -11 3 -14q0 -11 -15 -15q-18 2 -26 21q-2 5 -7 35q49 118 267 118l44 -14q26 -11 29 -34q-1 -80 -84 -141z" />
    <glyph glyph-name="integral" unicode="&#x222b;" horiz-adv-x="1013" 
d="M828 282q35 2 62 -1q13 -1 49 -5q6 1 12 -8q-1 -2 5 -7q-13 -8 -34 -25l-26 -13l-32 -18l-1 -1q31 -24 86 -63l1 1v-1v-1l2 -1q0 -4 -1 -6q0 -11 -10 -11q-8 2 -22 7q-11 0 -32.5 4.5t-31.5 4.5q9 -85 9 -95q-6 -3 -10 -3q-5 0 -10 4l-8 6q-13 14 -44 34q2 -39 10 -71
q0 -13 6 -39q-9 -3 -13 -3q-3 0 -4 1q-11 9 -27 29q-4 6 -12 10l-3 4v-1l-1 1q-4 1 -4 4l-36 30q-4 -14 -10 -40l-15 -54l-5 -4h1l-2 -1q-7 -3 -10 3q-2 2 -2 3l-2 2q-1 1 -1 2l-1 4l-1 -1l-1 1q-2 2 -2 4q-12 27 -37 69l-10 -25q-1 0 -3 -8q-1 -2 -1 -44q-2 7 -5 28v-1
q-5 -13 -13 -37q-3 -8 -9 -21q0 -9 -12 -9q-7 5 -8.5 13.5l-2.5 14.5q-4 28 -15 85l-26 -71q0 -6 -10 -22q-10 2 -19 21q-4 25 -18 75v-1l-40 -72q-6 -15 -5 -20l-3 -3q-3 -3 -7 -3q-11 0 -11 13v6q-3 20 -8 61q-3 8 -7 23q-5 -4 -14 -13.5l-13 -13.5q-10 -9 -16 -20h-1
q-5 -8 -14 -24q0 -6 -4 -12l-5 -3q-6 -2 -10 5q-1 -2 -2 -3l-1 9l-1 1h1q-2 25 -6 87h-1l-2 -1q-12 -12 -29 -23l-5 -5h-1l-1 -2q-4 -3 -12 -10q-1 -1 -4 -3.5t-3 -5.5q-4 -7 -15 -18q-7 -1 -11 4l-1 2q2 14 9 70q1 14 1 17q-2 -2 -17 -11q-36 -22 -53 -31l-4 -2
q-4 -1 -4 -3l-6 -3h2q-4 -2 -6 -2q-4 0 -7 2q-4 9 -2 15l29 66q-10 -2 -31 -9q-8 -1 -24 -7q-12 -2 -33 -7q-6 3 -8 16q11 18 26 33q1 3 5 9l18 21q-12 3 -28 8q-6 1 -17 4q-6 0 -8 1l-3 1q-16 2 -40 14q-7 3 -4 14l5 4q15 2 47 8q8 2 37 8q-28 45 -66 93v5q0 7 8 9
q3 0 44 -9q16 -3 51 -11l1 2q2 26 2 45q0 27 -4 40v2q0 7 8 8q8 -4 17 -14q13 -16 49 -44q14 30 43 79q5 9 10 25q7 9 14 2l3 -3q5 -13 19 -40q3 -12 15 -34q16 29 41 86q11 0 23 -17q8 -12 32 -52q10 14 16 24q1 3 8 11q7 12 16 36l3 4l-1 -1q3 6 13 3q6 -18 6 -16
q1 -4 5 -11q2 -14 23 -46q16 10 29 20t43 30q3 4 13 3q6 -22 23 -65q20 10 52 22q12 5 31 16l5 1h1q5 2 8 -6q2 -8 -2 -22l-8 -28h2q39 10 127 26q4 -9 4 -17q-18 -17 -48 -49q27 3 76 7q41 3 51 1q8 -2 6 -11v1q-2 0 -3 2l3 -10q-5 -4 -70 -35q-1 0 -14 -7zM670 -15l-3 5
l2 -4l1 -4v3zM917 259q-47 5 -77 3q-37 -2 -56 0q0 6 1 7l-1 2q-1 2 -1 6q13 13 41 26l42 20q-27 -4 -63 -7l-48 -4q-7 6 -7 12q0 5 4 11q7 10 8 11l-2 -1l5 5l13 13t14 13l-4 -1q-16 -4 -21 -4q-11 -3 -30 -7q-13 -2 -36 -11q-3 0 -9.5 -2t-9.5 -2q-10 3 -7 11q-2 4 0 11
q0 1 5 21l2 8q-22 -9 -62 -28l-8 -4h-4l-4 -3q-7 4 -7 6l-1 1l-20 56v1l-43 -29q-9 -8 -22 -15l-2 -2q-9 -9 -18 -2q-12 18 -30 57l-23 -37v-1q-1 -1 -1 -2l-2 -2q-1 0 -1 -3q-12 -11 -9 -20q-7 -7 -14 -7q-8 4 -8 11l-38 60l-2 -3q-10 -21 -12 -32q-3 -6 -10 -18
q-4 -8 -11 -20q-4 -6 -17 -15q-5 4 -8 10q-9 23 -30 69l-3 -6q-3 -5 -9 -14q0 -3 -3 -6q-12 -23 -35 -71q-7 -3 -11 -3q-2 0 -3 1q-21 13 -50 42v-13q0 -17 -2 -55q0 -9 -5 -14q-3 0 -5 -1q-46 16 -80 20q4 -8 18 -23q5 -8 19 -28q3 -4 18 -27l8 -14q-9 -8 -16 -8
q-34 -6 -51 -10q14 -4 35 -7l23 -8.5t17 -17.5q-27 -29 -42 -52q19 5 57 17q2 0 9 3t13 3q6 -7 6 -14q0 -4 -3 -12t-3 -12l3 3q-7 -13 -20 -41q17 12 53 33q6 6 22 15q6 0 8 -4h-1l5 -5v-12l4 20q-6 -50 -6 -60q0 -5 -2 -15l1 1q9 8 15 11q16 12 41 39q3 2 6 2t6.5 -2.5
t7.5 -22.5q0 -2 2 -12q2 -18 4 -47l1 2q3 6 6 10l4 4l31 32l23 22q3 -2 6 -5l1 -2l3 -3q9 -21 10 -38l5 -15q2 -16 3 -23q11 22 36 66q0 6 13 21q7 -4 13 -15l4 -8q0 -9 7 -23q3 -12 7 -37q2 -4 2 -7l1 -2v-1q10 30 35 90q13 2 20 -15q0 -2 7 -29q0 -8 6 -25l3 -21
q2 -6 2 -11l30 84q2 6 9 17q10 5 14 -4q7 -16 20 -35l2 -4l22 -40q4 20 16 56q0 8 7 26v1l1 2q0 4 5 8q10 1 14 -7l2 -2q5 -5 28 -25.5t40 -37.5l1 -1q0 7 -2 11q-6 28 -12 87q5 6 10 6q2 0 7 -2.5t6 -2.5q15 -5 51 -36q-2 18 -10 69q-3 14 2 22q-1 0 65 -9v1l11 3
q-18 5 -76 41v4l-1 2q-2 3 -2 5q0 4 5 7l24 15q11 7 35 18q1 2 13 7l2 2z" />
    <glyph glyph-name="ordfeminine" unicode="&#xaa;" horiz-adv-x="269" 
d="M202 19v1l1 -1l2 -1q4 -4 4 -7q0 -5 -9 -10q-2 1 -44 5q-27 3 -43 12q-32 9 -62 35q-3 -6 -4 -34q-1 -24 -13 -37q-19 -3 -27 23q0 7 5 60q3 35 3 58q-2 9 -2 18q0 21 18 56q23 128 24 136q17 83 38 131q6 13 17 13q16 0 30 -18q4 -12 -9 -20q-3 -3 -3 -5
q-27 -67 -49 -191q12 7 35 19q37 18 69 18q15 0 29 -4q11 -20 8 -30q-9 -8 -30 -9t-27 -6q-89 -20 -104 -95q-2 -29 25.5 -57.5t57.5 -35.5q21 -3 58 -18z" />
    <glyph glyph-name="ordmasculine" unicode="&#xba;" horiz-adv-x="802" 
d="M55 8v0v0zM771 448h2q1 -3 1 -5q0 -6 -8 -7h1l-7 -1q-3 1 -9 1h-6l1 -1q14 -2 33 -8h-35v-4q0 2 -6 -43q-1 -11 -5 -38l-1 -2q-6 -41 -16 -124q0 -6 -3 -20q0 -7 -1.5 -19.5t-1.5 -19.5l-1 -3q-5 -81 -3 -102q5 -17 5 -19q2 -6 5 -20l-4 -6q1 0 1 1h1q-1 -1 -5 -4v-5
q0 -9 -12 -15q-9 14 -9 52q0 27 -4 82q-2 24 -3 43q-2 -14 -5 -25q-8 -45 -9 -69q-1 -20 10 -54q-1 2 -3 4v-6q-44 0 -38 -1q-86 -6 -127 -4q-68 3 -94 2l3 1h-9q-10 0 -14 1q-14 -2 -17 -1q-5 0 -10 2h-1v-3h-13v2h-2q-15 -3 -25 -1q-4 -1 -7 0h-3l-1 1q-37 -5 -54 -4l-1 1
l-19 -3q-13 2 -39 1q-3 1 -5 1h-7q-1 -1 -2 -1q-9 2 -29 0q-2 1 -18 1q-6 -5 -7 -6h-1q-8 -2 -9 -2l-1 1q-3 1 -7 6h-5q-3 1 -4 0l1 -2v-8l-4 -3v-2q-2 -5 -6 -5q-3 0 -7 3q-7 12 -22 22q-15 -1 -16 -2h1h-1q-6 1 -10 9q4 11 14 12h24q4 -1 5 -1l3 56q0 3 1 26q4 57 3 65
l1 -1q0 17 3 32q0 3 1 18q4 49 4 53l2 3v10l1 5v4q1 9 7 83l3 39q-6 2 -11 2q-7 0 -11 -4l-7 -14l-10 10l2 11q-25 2 -45 14q-2 -4 -4 -13q-4 -2 -7 -2q-6 0 -7 8q0 9 9 23l5 10q10 -2 13 -7l2 -1l1 -1q18 -18 70 -14l2 -1q3 18 3 40q8 4 14 2q5 -3 11 -5q3 -9 -1 -28
q0 -4 -2 -10h3q5 0 7 -1h9l1 -1q23 0 55 -4q6 3 15 2q11 -1 15 0q8 -1 23 0t22 -1q8 3 25 3h26q26 0 39 -1q25 2 74 0q23 3 32 1q8 2 65 2q6 3 11 3h5q1 0 5 1q5 1 17 -1q11 1 33 5q9 0 26 1.5t26 1.5q29 0 41 2l1 3q2 7 9 26q17 -6 17 -24v-3h2q7 1 25 -2q0 -4 -1 -6z
M763 447h4q0 2 1 3h-2q-1 -3 -3 -3zM108 94v-66h8q-5 39 -8 66zM700 427h-15q-13 -2 -19 -2h-14h-26q-36 -1 -29 -1l10 -6q-21 6 -26 6h-5q-3 -1 -6 -1t-65 -2q-37 -1 -64 0l-75 -2q-4 0 -70 -2q-24 -1 -23 -1q-4 -2 -9 1h-2q-8 0 -22 -3l-36 2q-11 -1 -33 1t-33 1v-5
q-1 -10 -5 -30q-3 -29 -8 -86q0 -6 -6 -94q2 -31 0 -42l6 -59l1 -1q1 -11 4 -31q7 -15 7 -21v-14q-1 -3 0 -4v-2q5 0 16 1.5t16 1.5l100 9q13 3 27 3h1q7 0 19 2q18 0 154 -5q9 -3 27 -3q1 0 3 -1q72 -7 81 -7l-4 1q28 -2 70 4q6 77 31 166v1q-2 2 2 6q4 40 18 142h1
q0 6 5 36q4 12 8 39l-12 1v1zM709 309h1v2z" />
    <glyph glyph-name="Omega" unicode="&#x3a9;" horiz-adv-x="320" 
d="M228 228q-46 -103 -133 -282q-13 -5 -33 -12q-6 -2 -10 -2q-17 0 -21 40q-1 10 -10 14q-11 43 -11 95q0 31 6 101q5 66 4 102q-4 25 25 35q3 -5 4 -5h3q5 -1 13 -9q15 -12 15 -32q0 -10 -4 -26l-6 -25q-1 -4 1 -40q1 -24 -10 -39q0 -13 -1 -65q-1 -41 9 -64q35 44 71 121
l61 127q13 37 45 107.5t45 107.5q0 48 29 83v13h23q-6 -84 -42 -178q-9 -23 -73 -167z" />
    <glyph glyph-name="Omega" unicode="&#x2126;" horiz-adv-x="320" 
d="M228 228q-46 -103 -133 -282q-13 -5 -33 -12q-6 -2 -10 -2q-17 0 -21 40q-1 10 -10 14q-11 43 -11 95q0 31 6 101q5 66 4 102q-4 25 25 35q3 -5 4 -5h3q5 -1 13 -9q15 -12 15 -32q0 -10 -4 -26l-6 -25q-1 -4 1 -40q1 -24 -10 -39q0 -13 -1 -65q-1 -41 9 -64q35 44 71 121
l61 127q13 37 45 107.5t45 107.5q0 48 29 83v13h23q-6 -84 -42 -178q-9 -23 -73 -167z" />
    <glyph glyph-name="ae" unicode="&#xe6;" horiz-adv-x="297" 
d="M313 252q0 -33 -11 -42q-3 -13 -15.5 -34.5t-15.5 -32.5q-33 -42 -113 -114q13 -39 54 -39q22 0 49 -9q-43 -11 -67 -11q-32 0 -48 16q-2 1 -19 21q-6 7 -14 -2q-18 -12 -44 -12q-56 0 -56 48q0 10 4 36q4 3 4 6l1 4q3 13 8 16q26 55 69 92q16 29 73 53q24 0 32 -11
l-16 -18q-17 -19 -28 -21q-12 -6 -27 -21l-25 -25q-61 -72 -55 -123q5 -6 12 -10q23 0 51 24q12 133 137 238q10 8 25 8q31 0 36 -25q-2 -8 -1 -12zM165 79q102 88 111 169q-6 -7 -22 -18q-72 -71 -89 -151z" />
    <glyph glyph-name="oslash" unicode="&#xf8;" horiz-adv-x="219" 
d="M214 233q-11 -1 -16 -10l-4 -4q0 -48 -1 -58q-3 -31 -17 -55q-10 -33 -34 -59l-50 -45q-27 -9 -52 -9q-13 0 -25 2q-6 11 -14 13q-24 -18 -72 -57q-21 -34 -74 -66q29 51 65 91l57 64q-4 21 -4 42q0 105 98 191q4 1 15 5t18 4q5 0 12 -3q20 -5 58 -25q8 5 19.5 20
t19.5 20q28 37 43 37q7 0 15 -4l14 -14q7 -7 9 -22q-49 -7 -80 -58zM57 202q-52 -56 -45 -123l68.5 72l68.5 72v9q-3 5 -8 3l-4 -2q-10 -5 -18 -3q-14 -15 -52 -37q-8 3 -10 9zM160 159q4 18 0 20l-93 -92q-16 -16 -45 -51q12 -15 37 -12q69 23 99 123q0 3 2 12z" />
    <glyph glyph-name="questiondown" unicode="&#xbf;" horiz-adv-x="365" 
d="M328 617h1q11 0 11 -11q0 -7 -6 -12q-2 -1 -7 -8q-26 1 -55 -5q-4 5 -4 10q0 7 9 16l3 8q5 -2 7 -2q3 0 10 5q12 11 19 11t12 -12zM297 490q26 2 28 4l-3 1q19 0 19 -28q0 -9 -2.5 -29t-2.5 -28t4.5 -20t1.5 -30q-18 -29 -66 -59q-54 -33 -71 -52q-7 -5 -53 -35
q-13 -6 -39 -24l-37.5 -26t-35.5 -35q-11 -11 -23 -31q11 -45 82 -55q56 -8 67 -8q17 0 44 3l45 5q10 6 24 8q26 10 33 13q19 9 30 20q8 -1 29 -18q-1 -17 -16 -22.5t-30 -9.5q-17 -15 -39 -15q-64 -17 -121 -17q-118 0 -175 75l-6 17q6 39 58 77l24 24q15 13 30 17
q13 14 67 49q8 7 25 19q5 3 64 43q39 27 55 54q-2 5 -7 14z" />
    <glyph glyph-name="exclamdown" unicode="&#xa1;" horiz-adv-x="611" 
d="M522 727h3q2 2 6 -1q9 -6 13 -8q6 -5 7 -13q3 -3 11 -33q1 -45 -64 -96q-11 -7 -34 -16q-7 -2 -19 -2h-7q-4 0 -10 -1q-3 4 -12 2q0 23 9 24q33 -3 62 16.5t44 51.5q5 11 5 22q0 16 -13 29q-2 1 -4 -1l-3 -2q-6 -3 -11 -2q-14 -8 -47 -23q-6 2 -17 10v7q0 7 14 13l9 4
q10 6 18 7q20 18 20 42q0 50 -82 100q-36 22 -72 27q-2 0 -4 2l-36 6q-11 2 -33 -2q-13 1 -31 -3l-32 -7q-9 -3 -33 -16q-7 -3 -25 -13q-11 -4 -25 -17q-22 -20 -24 -21q-2 -5 -7 -6q-6 -7 -34 -43l-8 -16l-12 -27q-9 -16 -12 -52q-5 -67 53 -105l32 -12q16 -6 28 -22
q-2 -5 -8 -5q-7 0 -11 2q-7 6 -23.5 9t-23.5 8q-52 20 -68 89q-11 46 8 93v5q50 120 175 164q51 18 100 18q44 0 89 -15q3 -2 6 -1q42 -20 57 -30q33 -21 47 -41q35 -37 35 -82q-1 -2 -4 -11zM209 298v-2q4 -4 2 -9v-1q8 -16 10 -16l-3 15q-2 8 -3 13h-6zM156 154
q-1 -4 -5 -8q9 -2 19 -3q11 -4 15 -22q-40 -3 -43 -2l-12 -1q0 3 -5 25q-1 3 -1 6q0 6 3 10q10 29 35 37q9 3 18 -10q1 -1 3 -2v3q-1 4 -1 10q0 16 8 48l6 6q-6 13 -14 42q-2 2 -2 13q-6 20 -8 47q-3 31 -5 48q-6 50 -16 106q1 8 -3 23t-4 22q1 2 2 3l-5 -1q-5 3 -15 12
q-15 9 -20 47q18 -4 27 -17l4 -6q7 -11 17 -11q12 4 34 15q12 -9 21 -9q4 0 7 2q13 0 38 -8q12 -1 29 -14h7q-5 -21 -16 -19q-30 14 -54 14q-7 0 -22 -2q-5 2 -9 6l-2 2q-7 -4 -23 -7q3 -10 3 -22q5 -22 11 -66q0 -4 3 -11.5t3 -11.5t-1 -7q0 -12 6 -27q1 -4 1 -15
q-1 -5 3 -7q0 -12 14 -88l7 5v3q0 5 -2 15q-2 23 -1 27q-2 26 -1 47q0 20 2 72q1 16 1 27q-1 13 -3 47q0 7 13 7q8 -89 7 -103q-2 -7 1 -19l-1 -22q3 -4 1 -12q2 -4 0 -7q0 -6 2 -22.5t1 -25.5q1 -3 2 -9q0 -9 4 -25q0 -3 2.5 -10t2.5 -11v-1l3 -3q2 -1 5 -6q5 0 7 1l8 2
q-3 8 -2 11q-6 30 -6 116v57l1 -4q0 1 1 4v13l12 -1q0 -2 3 -6q2 -5 0 -10q1 -2 1 -12q2 -5 0 -20q1 -23 4 -70q4 -19 8 -57q2 -3 2 -9v-3q0 -5 10 -5h6q18 5 71 13q6 0 20 4h3v31q-3 40 -12 146l-7 89q3 2 6 7.5t8 5.5q4 0 10 -6q1 -34 8 -98q2 -14 6 -51v-8l-1 -1
q2 -8 4 -20q0 -8 2 -14q0 -27 7 -75q-1 -9 -1 -16q1 8 6 14q1 3 16 21q1 2 5 6l5 6q7 9 12 11q2 6 55 53q11 -5 11 -13q0 -6 -8 -12q-3 -2 -8 -8l-53 -58l-10 -19q-6 -12 -4 -21q-4 -9 -15 -6q-3 1 -5 2q0 -11 -11 -11q-8 0 -14 10l-3 4q-1 2 -3 2t-4 -1q-6 0 -17.5 -2
t-17.5 -2q-19 -4 -83 -11q-19 -2 -62 -17q-2 0 -4 -9.5t-8 -13.5q-2 -9 -2 -16q0 -11 4 -16q-1 -3 0 -7t0 -8q6 8 7 9q6 5 15 6q2 -2 4 -6q-2 0 8 -7q-2 2 -2 3h1q2 -2 3 -4l-3 -8q-2 -8 -6 -11v-3h-10l-4 4v-1l-2 1q-6 0 -10 9q0 1 -2 4l-1 -1l3 -7q1 -7 -1 -12l-8 -2h1v-1
l-1 -1q-3 -2 -6 -2t-6 2q-6 6 -7 8l-2 4q-1 2 -4 6l1 8l-1 -1q-7 -11 -25 -13zM514 63l-2 -2q-6 -6 -19 -13q-8 -4 -19 -12q-5 -2 -22.5 -9.5t-27.5 -7.5q-43 -18 -118 -16q-4 4 -10 3h-10q-49 9 -73 45q-5 6 -3 16q7 5 13 5q4 0 21 -18l20 -15q47 -12 59 -10q6 -3 21 -1
q12 1 20 0q50 11 94 28q14 8 31.5 20t26.5 25q28 41 28 71q0 13 -5 25q0 4 -3.5 11.5t-3.5 10.5q0 7 9 13q14 0 23 16q0 20 -7 23h-5q-4 0 -6 -1q-5 0 -6 -3q-4 -4 -12 -7q-3 -1 -4 -7q-5 -1 -8 -5q2 -4 -1 -20q-20 2 -26 19q0 4 1 8q-7 -12 -19 0q-2 9 2 18q7 14 7 16
q22 33 54 29l4 -12q-11 -3 -24 -20q-2 -1 -7 -7l6 4q27 16 41 16q7 0 14 -3q23 -25 23 -52q-3 -27 -30 -38v-3q6 -14 6 -30q0 -22 -13 -55q-8 -20 -46 -66zM359 162l-2 -2q-9 -9 -14 -7l-4 1q-4 1 -8 1v6q-1 4 -1 6q0 6 4 11q2 1 3 1l1 1l1 2q5 6 13 5l10 -9q1 -3 1 -6
q0 -6 -4 -10zM397 67v-1q-2 -3 -6 -10q-8 -6 -15 -12q-4 -2 -9 -2q-6 0 -14 3q0 4 -2 8q-2 9 3 14q6 2 16 5q6 4 17 12q14 -6 10 -17zM188 246q2 -14 -11 -14q-10 0 -14 9l-1 2v1q-1 0 -1 1q-5 9 -21 24q0 4 -5 6l5 15q15 -11 41 -36h7v-8zM296 100q-22 -8 -36 -8
q-6 0 -10 1q-17 25 -14 35q3 11 16 7q4 -6 10 -17q8 1 22 5q5 4 12 2q9 -1 12 -1q5 -8 5 -14q0 -5 -2 -8q-7 0 -15 -2z" />
    <glyph glyph-name="logicalnot" unicode="&#xac;" horiz-adv-x="882" 
d="M805 363v0l-1 1zM805 363v0h-1h1zM817 345q3 -3 4 -5l-4 4q23 -39 23 -79q0 -33 -15 -63l-1 -2q-2 -6 -7 -11l-2 -3q0 -1 -2 -2v-2q-9 -19 -41 -39l-1 -2q-2 -4 -8 -5l-4 -4q-5 -1 -12 -11q-6 0 -16 -6.5t-12 -7.5q-9 -3 -24 -12h-6v-1l-1 -1q-5 -1 -4 -1q-4 -1 -12 -8
l-5 -1q0 -6 -6 -4q-3 -3 -12 -7q-2 -2 -22 -15q-2 -2 -11 -9q-5 0 -14 -9q4 -1 10 -4q-11 2 -13 2l-7 -7q2 5 4 7v0q-5 0 -7 -1l-2 -2q-10 -5 -12 -5l-2 -1v1l-3 -4q-2 1 -7.5 -2.5t-7.5 -3.5q-9 -6 -19 -6q-16 -7 -35 -12q-14 -7 -39 -9q-11 -5 -28 -5q-5 -3 -26 -5
q-3 -1 -18 -4q4 2 5 2h-36q-8 -1 -28 -1h-29q-18 0 -84 13q-3 -1 -9 0q-8 2 -10.5 2.5t-24.5 8.5q-64 24 -88 49q-25 18 -46 64q-12 36 -12 65q0 23 8 39q12 31 28 59q1 3 5 7q24 36 54 64q7 9 16.5 15t24.5 19l4 1h-1q4 4 5 4q20 11 39 23q2 0 28 12q6 4 11 5q11 5 31 15
q13 4 46 16q23 8 54 15q9 2 25 6q58 6 62 6q29 0 50 -12q2 -4 14 -6q5 0 7 -1q11 -2 32 -3q30 -6 41 -6h5q8 0 12 -4q7 0 20 -5l2 1q3 2 7 -2q11 0 21 -7q3 -2 3 -1q6 0 9 -2l4 -2q-1 0 -1 -1h6q7 -1 20 -10l9 -3q15 -12 36 -20q2 -1 10 -10l1 -2q3 -3 4 -3l4 -7q1 1 1 3
q7 -6 19 -20l-1 2l2 -3q4 -2 6 -7t8 -9zM750 146q6 5 14 11l12 9l15 15q10 13 27 41q1 4 4 10q5 16 5 34q0 23 -8 44q1 3 -1 3l-1 2q-2 5 -8 16q-3 3 -5 10q-8 8 -9 13l-1 2l-3 2q-1 3 -6 4l-2 4q-3 4 -12 10q-3 5 -6 6l-4 3l-3 3q-17 11 -39 24q-19 10 -36 15l1 -1
q9 -5 13 -8h2l14 -13l1 2q3 -4 8 -9l5 -4q36 -36 47 -74q1 -2 4 -10q2 -13 5 -39q0 -6 -5 -38q-1 -5 -4 -11.5t-3 -9.5q-18 -41 -30 -53q-4 -4 -4 -8q-9 -10 -28 -29q18 10 41 24zM621 435l-3 1l1 -1h2zM598 77l2 2q3 0 9.5 2.5t9.5 1.5l38 15q10 7 28 26q3 1 8 4l2 2
q3 5 7 6q31 34 47 67l-1 -1q-10 -14 -30 -37q-3 0 -3 -2l-1 -2q-2 -5 -7 -5l-14 -11q-3 -7 -11 -10l-3 -2l-4 -4l-13 -5q-12 -10 -24 -15q-7 -2 -17 -13q-4 0 -8 -2l-2 -1q-3 -5 -8 -3q-6 -2 -17 -10q-3 -1 -7 -1q-4 -6 -10 -6q-2 -1 -9 -4h-3l-29 -11q7 2 18 4l12 3z
M481 63h-3q26 5 33 9l8 3q4 1 6 1q6 2 16 7q4 -1 10.5 3t9 4.5t5.5 1.5l5 3q18 11 33 14q3 1 30 17q93 54 116 120q5 14 5 31q0 29 -13 52q-7 13 -25 31q-35 36 -93 56q-2 1 -17 6q-5 2 -64 13q-4 -1 -9 0q-7 2 -9 2h-1l-3 -1q-5 -1 -8 0.5t-11 1.5q-24 0 -80 -8q25 5 49 9
h-2q-23 0 -48 -2q-5 0 -22 -5q4 0 -44 -7q-12 -2 -47 -14q-20 -7 -33 -15h-1q-13 -9 -40 -25q-6 -7 -14 -12q-11 -9 -35 -35q-4 -4 -10 -11q-19 -22 -43 -58l-16 -34q0 -4 -2.5 -9.5t-2.5 -8.5q-5 -10 -4 -27q-2 -12 3 -37q-2 8 -3 10v-1q7 -35 39 -62q27 -29 107 -41l1 -1
q33 -5 55 -4l1 -1q20 0 60 2q9 1 27 5q9 -2 13 2q25 3 49 9q4 -1 22 6zM310 436h1q8 2 48 16q-13 -3 -27 -8q-6 0 -12 -5q-4 1 -9 -2zM47 163q2 12 4 26q0 11 3 16q0 3 3 9t3 11q0 -5 14 34l20 33q2 2 4.5 5.5t3.5 4.5l1 3q-35 -44 -46 -84q-11 -16 -11 -49v-1l1 -3v-5z
M506 45l5 -3q0 -1 -1 -2q8 1 33 6h-31q-1 0 -6 -1zM60 141v-1q1 -2 1 -3v-1q6 -38 22 -56q43 -50 113 -65q6 -1 46 -9q16 -1 44 -5q5 0 27 -3q15 -2 27 0l1 -1h16q6 2 10 2h27q23 2 65 8q8 4 61 17l2 1l14 6q6 2 10 2q10 3 27 14q4 -1 6 0l1 2l11 4q5 3 11 7q-2 0 -31 -8
q-9 -2 -33 -9q-12 0 -20 -5q-9 -3 -13 3v-1l-1 2q-1 1 -1 3q-5 -1 -5 -2q0 -2 4 -6q-10 -2 -26 -6h-19q-9 -3 -29 -3q-3 -3 -10 -1q0 1 1 2l-9 -1l1 -2h-12q-5 0 -7 -2q-15 -2 -38 -4q-67 -5 -133 8l-18 6q-12 4 -20 6q-2 1 -30 16q-89 48 -83 144q0 2 1 5l-5 -10
q0 9 -4 -25q0 -10 -2 -29zM186 354q-25 -17 -56 -53q-15 -18 -27.5 -50t-13.5 -57q1 3 2 7.5t6 21.5q12 40 50 87q13 16 35 38q3 2 9 8z" />
    <glyph glyph-name="radical" unicode="&#x221a;" horiz-adv-x="460" 
d="M180 27l17 -34q-2 5 -17 34zM653 585l-22 -1q-16 2 -27 2q-56 0 -69 -35q-10 -12 -19 -34q-12 -31 -16 -37l-174 -316l-5 -20q-9 -1 -12 -13l-4 -8q-19 -20 -56 -78q-33 -52 -63 -74q-33 0 -47 21q-9 14 -16 48.5t-16 48.5q-1 7 -11 35q-5 16 -8 71q-7 138 -19 205
q2 20 19 20q17 -2 21 -4q11 -4 14 -15q12 -42 3 -77q5 -10 6 -29q1 -27 2 -30q-7 -13 -7 -26q0 -9 5 -26.5t5 -26.5q0 -7 -2 -14q3 -7 2.5 -24.5t3.5 -23.5q0 -16 38 -95q72 75 138 213l153 284q49 79 54 84q22 23 68 24q78 1 106 -3q15 -5 15 -28q-10 -19 -38 -19
q-10 0 -22 1z" />
    <glyph glyph-name="florin" unicode="&#x192;" horiz-adv-x="741" 
d="M454 -5q-31 -7 -65 -7q-46 -1 -84 7l19 -8q17 -4 36 -4t35 4q14 0 43 4q9 2 16 4zM401 -34l-2 -2q-65 -4 -90.5 7.5t-69.5 28.5l-76 43q-41 24 -65 58q-21 23 -46 66q-15 34 -22 66q-4 17 -4 41v3q0 12 -1 37t-1 37q2 17 7 36q3 11 10 24q24 58 67 87q31 24 97 66
q42 22 70 31q3 0 11 3t12 3q18 6 68 7q44 1 61 -8q6 -5 10 -14q7 1 46 -12q4 -2 12 -7q23 -10 58 -27q29 -16 50 -37q52 -52 91 -137q11 -34 11 -72q0 -43 -14 -83q-2 -8 -8 -22l-2 -2v-4q-2 -4 -9 -11v-2q-2 -5 -2 -10h-3l-1 -2l3 -3q-6 -3 -9 -6l-1 -2l-4 -8l5 3
q-6 -7 -17 -21q-2 -4 -12 -15q-1 -2 -4 -5l-2 -1l-13 -16h-1q-20 -20 -37 -32q-5 -4 -19 -14v-1q5 2 19 15q11 11 20 11q2 2 5 2q4 0 8 -2q0 -12 -10 -18l-2 -2q-3 -3 -10 -9.5t-22 -17.5q-2 -3 -12 -5q-1 1 -1 -2q-16 -6 -21.5 -9t-34.5 -16q-39 -18 -82 -16q-2 -3 -11 -3
v1zM506 540l-4 1q-4 2 -6 4q-5 2 -10 5q-5 0 -15.5 6t-14.5 7q-7 1 -16 1q-22 0 -38 -14q2 -1 7 -8q-2 -3 3.5 -5.5t6.5 -4.5q9 -6 16 -18l4 -7q7 -13 18 -14q24 3 66 19q5 9 16 13q-9 4 -11 4q-5 1 -9 5l-4 2h-1l-6 3q-4 -2 -6 -4q1 5 4 5zM418 581q-6 3 -9 2q-6 3 -27 3
q-7 0 -10 1q-9 -2 -16 -2q-6 0 -11 1q-54 -6 -113 -36q6 2 29 7q69 16 124 2q16 14 29 20zM419 580l-1 -1q1 0 1 1zM568 66l6 10q6 4 21 19q4 4 31 34q54 82 60 131q2 15 0 48q-1 38 -7 44v1q-3 3 -3 7l-1 2q0 1 -14 29q-1 2 -3 9q-1 2 -11 5q-3 -2 -5 -2q-10 -2 -15 2l-2 1
q0 1 -2 1q-13 -3 -33 -16v-4q-1 -3 -1 -4l-2 -5q0 -1 1 -1v-4q1 -6 9 -17l4 -4q6 -5 13 -23l-5 -46q-1 -6 -18 -26l-7 -2h2q-7 -2 -10 0q2 0 -5 1l-2 1q12 -18 11 -27v-2q4 0 22 -2q22 -10 22 -43q-1 -2 -1 -3l-2 -2q0 -7 -8 -11q-12 -15 -26 -15q-2 1 -4 1l-3 1
q-13 3 -15 14q-2 7 -3 14q-8 -4 -23 -15q21 -11 29 -35q0 -6 3 -16.5t3 -16.5l-3 -22q-3 -4 -3 -11zM653 407l1 -1l1 -2q0 3 -2 3zM536 286q1 -2 2 -3l1 -1q-1 2 -3 4zM313 544q-35 -2 -60 -8q-12 -4 -42 -12q-23 -6 -55 -24q-33 -32 -61 -80q11 -10 31 -30l8 -8q1 0 3 -2
q12 -19 12 -42q0 -24 -24 -52q-10 -9 -6 -35q1 -6 1 -15q4 -13 14 -37v-5h1q2 -2 2 -5q6 -8 12 -28q1 -15 -2 -47q3 -4 1 -10q77 -73 167 -90q7 0 20 -3q52 -2 72 -2q5 1 14.5 2.5t14.5 2.5q-6 2 -7 6q-8 8 -13 11l-11 11q-4 2 -11 5q-13 3 -19 11q-24 4 -29 21q0 21 -3 61
q-4 5 -4 10q0 4 3 11t3 11h-3q-10 -7 -29.5 -13t-27 -10.5t-10.5 -4.5q-8 1 -12 9q-2 15 -13 18q-4 0 -6 1q-23 -1 -34 4q-16 7 -12 28v5q-2 5 2 9q0 8 -4 24.5t-4 24.5q0 13 13 30q21 17 47 17q8 0 15 -2q10 3 24.5 -7t20.5 -7q9 5 28 12q5 0 11 6q10 7 11 8q7 4 11 8
q4 9 4 20q0 14 -6 30h-8q4 -14 2 -19l3 3q-11 -16 -17 -18q-12 -2 -36 -5q2 -7 -6 -16q-14 -16 -38 -8q-6 2 -12 6.5t-6 16.5q0 10 5.5 24t19.5 45q11 25 11 29q-4 6 -25 9.5t-25 11.5q0 2 -3 7q2 13 15 25q5 8 20 19l14 14q9 7 28 18zM636 431l1 1v3l-1 -1l-1 1q-1 1 -3 5
q-7 3 -7 9l-3 6v-1l-2 1q-7 4 -13 18h-3q0 3 -6 9q-5 3 -8 8q-10 9 -26 18h-5q-3 -3 -13 -6l-8 -8t-20 -10q-18 -5 -22 -7h-7l-5 -2q-10 -2 -33 -3q-14 3 -28 23.5t-21 22.5h-8q-5 0 -8 6q-2 2 -11 5q-3 1 -13 8q-1 2 -1 5q-12 2 -27 2q2 -3 3 -7q-19 -11 -47 -38
q-1 -1 -4 -2l-2 -1q-9 -8 -23 -25q2 -1 6 -1l7 -1q4 0 6 -2q6 0 22 -9q10 -8 8 -32q-13 -27 -36 -83q-1 -1 0 -3l12 -3l3 2q2 1 5 3h-1l-1 2q-4 7 1 13q11 9 38 11q10 -1 11 1q3 6 -24 42q20 -20 23 -24q0 9 5 14q10 5 19 5q7 0 13 -3q22 -15 22 -53q0 -27 -19 -42
q-7 -8 -33 -19q-21 -12 -30 -13h-8q-11 -2 -19 5q-20 10 -25 9q-20 7 -47 -12q-4 -6 -4 -14q0 -7 5 -25t3 -28q-3 -16 -3 -15q0 -4 13 -4h22q18 -8 23 -18q1 -3 3 -3l8 4q8 4 14 2q14 7 42 18q27 -4 22 -27q-3 -8 -5 -17q0 -3 4 -11q1 -13 0 -47q0 -8 1 -10q12 -2 34 -19
q8 -2 17 -8q11 -9 15 -11q3 -5 26 -23q0 -3 -1 -3q25 4 64 24q19 4 26 26l6 38q-3 5 -3 8l-1 4v1l-1 -4q-3 25 -19 33q-6 0 -13 5l-4 3q-2 3 -2 10q1 2 1 5q5 9 18 17t17 12q8 3 14 3q5 0 9 -2q8 -3 15 -28q1 0 1 1h1l2 1q13 4 13 19q1 10 -13 10q-18 1 -26 10.5t-5 21.5
q-5 7 -13 21q-4 1 -12 3.5t-19 15.5q-1 9 -22 17q-3 2 -12 7q-1 3 3 17q16 2 23 -1q4 -5 18 -10t19 -9t8 -10l1 -2q2 -2 5 -1q7 -2 21 -7q7 5 9 9q0 20 5 45l-20 21q-8 16 -8 22q4 23 4 25q4 14 37 28q3 0 9 4q5 0 15 -5q3 -1 7 4zM126 128q0 22 1 32q-4 6 -6 18
q-7 10 -25 58q-2 8 -2 19q0 15 3 36q5 6 19 19q18 17 11 47q-2 7 -10 15l-4 4q-7 4 -22 19l-7 7l-7 -21q-17 -42 -22 -64q-1 -6 -2 -18q0 -8 -3 -19q7 -45 44 -107q17 -30 32 -45zM639 332q-11 -4 -23 4q-2 5 -2 11t3 13l-2 3q2 10 17 16q16 2 29 -24v-16zM639 354l-1 1v-2z
M640 354q1 1 0 1v-1zM220 96h-2l-1 -1q-6 -4 -8 -4l-5 -2q-8 -3 -13 -3q-6 -1 -14 5q-4 5 -2 19q3 6 12 14q6 4 16 12q8 -1 13 -6l3 -3q10 -10 11 -22q-3 -7 -10 -9zM206 112l-1 1l-2 -2z" />
    <glyph glyph-name="approxequal" unicode="&#x2248;" horiz-adv-x="336" 
d="M237 423q9 4 11 4q24 17 50 66q15 27 25 27t14 -31l-24 -42q-12 -10 -30 -33t-33 -31q-26 2 -41 27q-6 10 -21 49q-5 13 -16 37.5t-28 26.5q-25 -9 -42 -43q-5 -10 -20 -59q-3 -11 -15 -14t-12 25q0 48 42 103q2 0 6.5 2.5t4.5 6.5q25 19 46 17q27 -8 47 -51
q7 -7 12.5 -27.5t14.5 -25.5v-8q0 -2 -2 -3l2 -4q1 -8 5 -6l2 -11l2 2v-4zM258 238q13 4 15 4q32 16 68 62q20 25 33 25q15 0 20 -29q-1 -6 -14 -20l-19 -19q-16 -10 -39 -31q-26 -22 -46 -30q-35 2 -56 26q-8 9 -28 46l-20 36q-17 22 -40 24q-34 -8 -57 -40q-6 -10 -27 -56
q-4 -10 -21 -13q-15 -3 -15 23q0 46 56 98q3 0 7 2q8 2 8 6q34 18 63 16q37 -7 64 -48q9 -7 16.5 -26t19.5 -24v-8q0 -2 -3 -2l3 -4q1 -8 7 -6l3 -10l2 2v-4z" />
    <glyph glyph-name="approxequal" unicode="&#x22f2;" horiz-adv-x="336" 
d="M237 423q9 4 11 4q24 17 50 66q15 27 25 27t14 -31l-24 -42q-12 -10 -30 -33t-33 -31q-26 2 -41 27q-6 10 -21 49q-5 13 -16 37.5t-28 26.5q-25 -9 -42 -43q-5 -10 -20 -59q-3 -11 -15 -14t-12 25q0 48 42 103q2 0 6.5 2.5t4.5 6.5q25 19 46 17q27 -8 47 -51
q7 -7 12.5 -27.5t14.5 -25.5v-8q0 -2 -2 -3l2 -4q1 -8 5 -6l2 -11l2 2v-4zM258 238q13 4 15 4q32 16 68 62q20 25 33 25q15 0 20 -29q-1 -6 -14 -20l-19 -19q-16 -10 -39 -31q-26 -22 -46 -30q-35 2 -56 26q-8 9 -28 46l-20 36q-17 22 -40 24q-34 -8 -57 -40q-6 -10 -27 -56
q-4 -10 -21 -13q-15 -3 -15 23q0 46 56 98q3 0 7 2q8 2 8 6q34 18 63 16q37 -7 64 -48q9 -7 16.5 -26t19.5 -24v-8q0 -2 -3 -2l3 -4q1 -8 7 -6l3 -10l2 2v-4z" />
    <glyph glyph-name="Delta" unicode="&#x394;" horiz-adv-x="854" 
d="M678 374l4 2q4 2 12 4q14 6 45 6q4 0 7 -4l1 -2q1 -3 1 -6q0 -6 -3 -10q-13 -15 -38 -48q23 -5 40 -13q9 0 31 -8q5 -2 7 -13q-3 -4 -20 -8q-9 -5 -29 -11q3 -3 11 -7q2 0 13 -6l5 -4q7 -4 19 -14q11 -6 14 -8q5 -5 7 -15q-15 -5 -19 -5q-14 -2 -42 -9q2 -3 2 -4l27 -40
q0 -9 -7 -13l-75 -3q-1 0 -3 -1h-2q4 -15 13 -44q0 -5 4 -9l2 -3q5 -8 5 -14q-5 -8 -12 -6q-5 1 -10 3l-20 6l9 -59q1 4 2 -10q0 -7 -8 -9q-12 1 -28 9q-20 10 -26 12q-1 -6 -2 -18t0 -19q-2 -5 -2 -14q-4 -5 -8 -5q-3 0 -7 2q-21 12 -30 25l-8 4q0 -27 -6 -61l-1 -1v1
l-7 -3q-4 4 -15 12q-9 14 -31 39q-5 -13 -19 -39q-4 -2 -7 -2q-5 0 -8 6v1q-1 1 -1 2v-1l-3 4q-2 4 -5 12l-1 2q-8 -18 -13 -28q-4 -3 -8 -3t-8 4l-4 4l-4 6v-1l-2 2q-2 2 -14 23q-3 -4 -7 -12.5t-7 -12.5l-1 -2q-3 -6 -9 -6q-3 0 -7 2q-7 9 -21 45q-12 -13 -41 -38
q-16 9 -22 46v3q-3 -3 -7 -3q-7 -7 -47 -27q-1 0 -3 -1l-3 -1q-3 -1 -5 -1q-11 0 -13 13q0 4 2 12l2 12q4 26 4 18q-52 -12 -77 -12l-3 6l-1 3l-4 3q3 8 11 25l9 15v1h-16q-12 0 -56 5q-4 10 -4 16q0 4 2 6q3 6 10 16q0 3 2 5l3 5q-7 1 -41 10q-5 1 -7 10h1l-2 5q2 8 13 24
q5 9 12 16l1 2q-1 0 -1 1h-2l-4 2q0 2 -4 3q-16 7 -35 20q-2 -5 -10 -13q1 3 7 15q-3 3 -11 9q10 -3 13 -6q12 18 40 37q-7 7 -19 23q-1 1 -3 5l-2 2q-1 2 -4 7l3 2l-2 1q1 5 37 8q8 -1 22 3l-2 4q-2 2 -2 5q-9 23 -22 50l8 8q11 1 31 -1q15 0 18 1q0 3 -2 7l-14 52l3 6h-1
v1q5 5 8 5q6 -1 31 -8q19 -5 32 -5l8 25q0 4 2 12.5t2 13.5l3 5q-1 5 -1 4q-2 12 12 12q6 -4 19 -11q11 -10 35 -28v2q7 20 15 28l3 3v-3l4 7q6 0 11 -5l3 -3q1 0 3 -2l9 -9q5 -5 15 -17l23 36q14 17 23 16q8 -4 19.5 -20t17.5 -19l15 12q17 17 24 16q11 -7 14 -19l2 -4
l4 -8l4 -9l3 -6q1 0 2 -1q13 18 29 33q1 4 5 6h1q6 5 15 17q10 0 13 -5l2 -3l20 -51l5 5q4 5 11 10q20 18 36 25l6 -2h1q0 -1 1 -1v-1q5 -4 4 -10v-11q-1 -4 -3 -13q0 -4 -2.5 -12t-2.5 -11.5t-2 -6.5q8 6 28 17q5 5 15.5 7t13.5 4q17 0 19 -3t2 -23l-2 -2v-1q0 -3 -2 -5
q-2 -6 -8 -18q-1 -5 -5 -15zM742 159l-3 5q-9 12 -24 39q5 6 45 20h4q-9 9 -30.5 20t-29.5 18q-1 3 -1 5q0 4 4 8l3 4q8 1 20 6l7 3h-2q-4 3 -36 10q-12 2 -21 13q1 4 36 50l3 5h-1q0 -1 -1 -1q-9 -3 -34 -12q-13 -5 -21 -1q-10 4 -6 18q1 5 4 16q2 5 7 13q0 5 3 9l1 1
q0 1 3 11q-16 -3 -32 -16q-5 -2 -23 -19q-8 -7 -14 -2q-4 1 -9 14q1 3 1 6v5q8 32 8 43q-17 -14 -26 -27l-2 -2l-1 -2q-5 -7 -11 -7q-2 0 -5 2q-11 9 -28 56l-2 -2l-2 -1q-3 -3 -35 -43q-5 -9 -16 -8q-17 15 -30 44q-1 1 -1 4q-8 -8 -26 -23q-20 -2 -38 25q0 2 -3 4l-5 5
q0 1 -1 2l-10 -15q-6 -11 -23 -34q-5 -2 -15 2t-13.5 10t-15.5 16q0 1 -2 3q-3 -10 -16 -36q-9 0 -26 14q-11 9 -32 23l-1 1q-1 -11 -9 -44l-4 -21q-6 -1 -14 -1q-22 0 -54 8l1 -3q1 -4 4 -13q0 -3 8 -24q0 -2 2 -10q3 -11 -21 -15l-31 -2q6 -6 6 -14q7 -11 16 -42
q-18 -11 -54 -13l8 -8q3 -2 7 -8q9 -7 9 -17q-14 -9 -41 -29l12 -5q4 -3 9 -3q12 -8 16 -11q8 -7 10 -16q-13 -15 -28 -38q15 0 46 -10q7 -12 5 -16t-19 -31q25 1 74 -8l2 -3q3 -7 1 -12q-6 -10 -17 -31l-1 -1q15 2 43 9q3 0 13.5 4.5t18.5 2.5q6 -3 8 -19q-2 -2 -2 -4v-1
q0 -3 -2 -6q-3 -9 -7 -25h2l6 3q3 1 9 5q3 1 12 8q6 6 12 7q5 6 20 13q4 1 14 -9q1 -12 4 -35q1 -1 1 -4l5 6l11 10q8 11 24 22q7 -1 11 -7q5 -13 16 -37q2 6 5 9q0 -2 3 8l3 5q-4 -4 -4 8q0 14 13 14q6 -4 15 -15q2 -4 -1 -7l3 -6l4 -5q3 -5 12 -17q9 16 14 30q6 6 15 5
q8 -10 13 -22l1 1q3 6 8 17l1 2q1 0 1 2l4 8q6 4 11 2q7 -7 19 -21.5t19 -21.5v10q0 7 2 20q-2 4 0 11v2q1 0 1 1l-5 6l6 3l1 1q1 3 6 3q9 -2 34 -23q3 -3 11 -9v20q-1 5 1 9l2 4v3q1 0 1 2q0 14 11 15q6 -1 17 -9l29 -12q-2 9 -5 24q1 6 -2 16.5t-3.5 13.5t-2.5 13
q4 7 10 8h10l4 -2l-1 1h1q5 0 7 -2q-2 0 4 -1l2 -1l-2 5l-12 39q0 3 -2 10q-2 5 0 11q11 5 40 5q4 3 12 1q10 2 27 2z" />
    <glyph glyph-name="Delta" unicode="&#x2206;" horiz-adv-x="854" 
d="M678 374l4 2q4 2 12 4q14 6 45 6q4 0 7 -4l1 -2q1 -3 1 -6q0 -6 -3 -10q-13 -15 -38 -48q23 -5 40 -13q9 0 31 -8q5 -2 7 -13q-3 -4 -20 -8q-9 -5 -29 -11q3 -3 11 -7q2 0 13 -6l5 -4q7 -4 19 -14q11 -6 14 -8q5 -5 7 -15q-15 -5 -19 -5q-14 -2 -42 -9q2 -3 2 -4l27 -40
q0 -9 -7 -13l-75 -3q-1 0 -3 -1h-2q4 -15 13 -44q0 -5 4 -9l2 -3q5 -8 5 -14q-5 -8 -12 -6q-5 1 -10 3l-20 6l9 -59q1 4 2 -10q0 -7 -8 -9q-12 1 -28 9q-20 10 -26 12q-1 -6 -2 -18t0 -19q-2 -5 -2 -14q-4 -5 -8 -5q-3 0 -7 2q-21 12 -30 25l-8 4q0 -27 -6 -61l-1 -1v1
l-7 -3q-4 4 -15 12q-9 14 -31 39q-5 -13 -19 -39q-4 -2 -7 -2q-5 0 -8 6v1q-1 1 -1 2v-1l-3 4q-2 4 -5 12l-1 2q-8 -18 -13 -28q-4 -3 -8 -3t-8 4l-4 4l-4 6v-1l-2 2q-2 2 -14 23q-3 -4 -7 -12.5t-7 -12.5l-1 -2q-3 -6 -9 -6q-3 0 -7 2q-7 9 -21 45q-12 -13 -41 -38
q-16 9 -22 46v3q-3 -3 -7 -3q-7 -7 -47 -27q-1 0 -3 -1l-3 -1q-3 -1 -5 -1q-11 0 -13 13q0 4 2 12l2 12q4 26 4 18q-52 -12 -77 -12l-3 6l-1 3l-4 3q3 8 11 25l9 15v1h-16q-12 0 -56 5q-4 10 -4 16q0 4 2 6q3 6 10 16q0 3 2 5l3 5q-7 1 -41 10q-5 1 -7 10h1l-2 5q2 8 13 24
q5 9 12 16l1 2q-1 0 -1 1h-2l-4 2q0 2 -4 3q-16 7 -35 20q-2 -5 -10 -13q1 3 7 15q-3 3 -11 9q10 -3 13 -6q12 18 40 37q-7 7 -19 23q-1 1 -3 5l-2 2q-1 2 -4 7l3 2l-2 1q1 5 37 8q8 -1 22 3l-2 4q-2 2 -2 5q-9 23 -22 50l8 8q11 1 31 -1q15 0 18 1q0 3 -2 7l-14 52l3 6h-1
v1q5 5 8 5q6 -1 31 -8q19 -5 32 -5l8 25q0 4 2 12.5t2 13.5l3 5q-1 5 -1 4q-2 12 12 12q6 -4 19 -11q11 -10 35 -28v2q7 20 15 28l3 3v-3l4 7q6 0 11 -5l3 -3q1 0 3 -2l9 -9q5 -5 15 -17l23 36q14 17 23 16q8 -4 19.5 -20t17.5 -19l15 12q17 17 24 16q11 -7 14 -19l2 -4
l4 -8l4 -9l3 -6q1 0 2 -1q13 18 29 33q1 4 5 6h1q6 5 15 17q10 0 13 -5l2 -3l20 -51l5 5q4 5 11 10q20 18 36 25l6 -2h1q0 -1 1 -1v-1q5 -4 4 -10v-11q-1 -4 -3 -13q0 -4 -2.5 -12t-2.5 -11.5t-2 -6.5q8 6 28 17q5 5 15.5 7t13.5 4q17 0 19 -3t2 -23l-2 -2v-1q0 -3 -2 -5
q-2 -6 -8 -18q-1 -5 -5 -15zM742 159l-3 5q-9 12 -24 39q5 6 45 20h4q-9 9 -30.5 20t-29.5 18q-1 3 -1 5q0 4 4 8l3 4q8 1 20 6l7 3h-2q-4 3 -36 10q-12 2 -21 13q1 4 36 50l3 5h-1q0 -1 -1 -1q-9 -3 -34 -12q-13 -5 -21 -1q-10 4 -6 18q1 5 4 16q2 5 7 13q0 5 3 9l1 1
q0 1 3 11q-16 -3 -32 -16q-5 -2 -23 -19q-8 -7 -14 -2q-4 1 -9 14q1 3 1 6v5q8 32 8 43q-17 -14 -26 -27l-2 -2l-1 -2q-5 -7 -11 -7q-2 0 -5 2q-11 9 -28 56l-2 -2l-2 -1q-3 -3 -35 -43q-5 -9 -16 -8q-17 15 -30 44q-1 1 -1 4q-8 -8 -26 -23q-20 -2 -38 25q0 2 -3 4l-5 5
q0 1 -1 2l-10 -15q-6 -11 -23 -34q-5 -2 -15 2t-13.5 10t-15.5 16q0 1 -2 3q-3 -10 -16 -36q-9 0 -26 14q-11 9 -32 23l-1 1q-1 -11 -9 -44l-4 -21q-6 -1 -14 -1q-22 0 -54 8l1 -3q1 -4 4 -13q0 -3 8 -24q0 -2 2 -10q3 -11 -21 -15l-31 -2q6 -6 6 -14q7 -11 16 -42
q-18 -11 -54 -13l8 -8q3 -2 7 -8q9 -7 9 -17q-14 -9 -41 -29l12 -5q4 -3 9 -3q12 -8 16 -11q8 -7 10 -16q-13 -15 -28 -38q15 0 46 -10q7 -12 5 -16t-19 -31q25 1 74 -8l2 -3q3 -7 1 -12q-6 -10 -17 -31l-1 -1q15 2 43 9q3 0 13.5 4.5t18.5 2.5q6 -3 8 -19q-2 -2 -2 -4v-1
q0 -3 -2 -6q-3 -9 -7 -25h2l6 3q3 1 9 5q3 1 12 8q6 6 12 7q5 6 20 13q4 1 14 -9q1 -12 4 -35q1 -1 1 -4l5 6l11 10q8 11 24 22q7 -1 11 -7q5 -13 16 -37q2 6 5 9q0 -2 3 8l3 5q-4 -4 -4 8q0 14 13 14q6 -4 15 -15q2 -4 -1 -7l3 -6l4 -5q3 -5 12 -17q9 16 14 30q6 6 15 5
q8 -10 13 -22l1 1q3 6 8 17l1 2q1 0 1 2l4 8q6 4 11 2q7 -7 19 -21.5t19 -21.5v10q0 7 2 20q-2 4 0 11v2q1 0 1 1l-5 6l6 3l1 1q1 3 6 3q9 -2 34 -23q3 -3 11 -9v20q-1 5 1 9l2 4v3q1 0 1 2q0 14 11 15q6 -1 17 -9l29 -12q-2 9 -5 24q1 6 -2 16.5t-3.5 13.5t-2.5 13
q4 7 10 8h10l4 -2l-1 1h1q5 0 7 -2q-2 0 4 -1l2 -1l-2 5l-12 39q0 3 -2 10q-2 5 0 11q11 5 40 5q4 3 12 1q10 2 27 2z" />
    <glyph glyph-name="guillemotleft" unicode="&#xab;" horiz-adv-x="1543" 
d="M993 2h165q14 0 103 -3q21 -1 76 -4q10 1 20 -2q14 2 40 -1q30 -4 41 -4q28 1 38 -2q5 -4 5 -11q0 -3 -1 -7q-4 -2 -30 -5q-41 -5 -36 -5q-4 -1 -11 -2q-1 0 -67 -8l-93 -12q-31 -6 -112 -18q-30 -4 -97 -12q-7 0 -25.5 2t-28.5 1l-1 1q-5 0 -14.5 1.5t-14.5 1.5
q-32 8 -75 23q-3 1 -10 6q-14 4 -19 16v3l-1 1l-1 2q-2 3 -2 6q0 5 5 11q6 -2 11 -7q1 4 4 5l2 3q28 12 45 12q6 1 15 3q55 5 69 5zM877 -34l1 -1q0 -2 1 -4v-3q5 -2 15 -7l52 -16q13 -1 41 -5q42 -6 113 3l6 2q4 -1 10 0q9 2 11 2q11 0 31 4q11 1 29.5 4t56.5 11h6
q10 0 14 2q28 4 58 7l41 7q4 0 8 1q-19 2 -66 5l-163 3q-3 -1 -5 0q-32 1 -97 1q-10 0 -31 -1q-2 1 -12 1h-5q-18 0 -100 -11q-5 -2 -15 -5zM805 -59q-3 -4 -11 -9q-1 -2 -8 -6q-22 -8 -33 -8q-10 -5 -26 0q-29 9 -36 33q-4 36 42 47q6 2 20 6q46 2 56 -16q13 -25 -4 -47z
M724 -60l2 2q1 2 3 4q9 -1 11 -6l1 -3q30 0 39 10q2 0 11 10q0 2 2 4l1 1q0 16 -1 17l-18 7l1 1h-3l2 -1q-35 -1 -61 -20q-8 -6 -5 -13l5 -6q6 -6 10 -7zM649 -38q2 -1 5 -2q3 -6 3 -10q0 -3 -1 -6q-8 -7 -25 -15q-2 -2 -34 -13q-9 -3 -42 -8q-2 0 -11 -2q-6 -1 -10 0
q-25 -2 -43 1q-3 -2 -5 -2q-3 0 -5 2q-24 0 -54 4l-15 2q-6 1 -75 8v1l-25 3q-16 2 -62 9v1l-40 7v1q-4 0 -6 1q-6 1 -27 3v2q-29 6 -88 17q-8 0 -25 8q-10 1 -31 5q-8 2 -8 7q0 3 3 6q14 6 26 3q4 0 6 -1l124 -2q50 2 144 4q11 0 83 11l-33 -8q40 2 68 1h38t34 -1q2 1 19 0
q41 -1 49 -2q25 -3 47 -12q13 -11 16 -23zM632 -47v0q-4 12 -20 17q-10 2 -16 4q-77 8 -177 6l1 -1h-31q-19 -1 -57 -4q-3 0 -4 1l-155 -7q4 1 12.5 -1t11.5 -2t5 -2q11 0 19 -3q4 -1 6 -1l106 -18q10 -2 59 -6q16 -1 45.5 -5t42.5 -4h14q2 -2 3 -1h3q3 1 4 0q17 2 60 4
q19 1 14 1q20 5 54 22z" />
    <glyph glyph-name="guillemotright" unicode="&#xbb;" horiz-adv-x="645" 
d="M464 82q1 -2 2 -3q2 -7 0 -12q-3 -7 -10 -6q-7 -1 -15 13q-7 25 -9 105q-1 5 -6 11q-10 2 -30 2q-19 0 -46 -2q-33 -5 -97 -11q-13 -1 -42 -7l1 1h-2q-6 0 -22 -3t-24 -2q-12 1 -35 -3t-34 -3q-4 4 -6 12l1 -14q1 -2 1 -6l-7 -7q-3 -2 -5 -2q-4 0 -6 4h-5q0 43 -6 128
q0 -1 -1 -4q1 -2 1 -5v-5q-1 -2 -1 -3v-1l1 -1q2 -7 2 -13l-2 -17l1 -2l-1 -19v-14q2 -12 -1 -23q-1 -6 1 -11q-2 -8 -7 -8q-2 0 -4 1l-2 -2q-3 1 -7 7h1l-5 2q-7 27 -4 80q5 82 -7 119q0 8 6 13q4 1 7 0v2q4 7 10 7q3 0 7 -1l14 -3.5t15 -1.5q23 0 116 -6q5 0 38 -6
q14 2 37 -1q28 -4 37 -4q15 -1 46 -5l58 -6q3 69 -15 131q1 12 17 15q23 -25 64 -80l17.5 -18l17.5 -18q43 -43 95 -100q1 -15 -10 -25l-23 -21q-6 -8 -21 -19q-8 -11 -20 -25l-3 -2q-5 -3 -5 -9l-28.5 -32.5t-25.5 -42.5q-4 -9 -9 -18h-5zM451 139h3v-10q0 -4 3 -7v-12
q10 20 31 50l77 86q7 7 23 26l-2 2l-3 6q0 1 -2 1l-3 3q-5 5 -7 9q-21 23 -65 67q-3 2 -26 28q-8 8 -27 30q-7 8 -20 20q3 -6 5 -29q1 -12 0 -18q0 -5 2 -14q4 -53 2 -72q-3 -3 -17 -3q-4 4 -7 19q-1 4 -5 3q-17 1 -51 6q-6 2 -22 2l-3 2q-21 1 -64 7h-8q0 2 -3 2v-1
q-8 4 -23 2q-65 7 -109 8l-2 -2q-23 0 -58 1v-4q8 -22 14 -66q-1 -19 3 -77v0q12 -5 17 -15l1 -2v-2l107 9q7 2 29 4q7 1 50 8q28 5 50 4q6 0 20 3q5 0 33 3q19 2 33 0q3 6 9 6q3 0 6 -1q7 -10 8.5 -24.5t3.5 -29.5q-2 -2 -1 -6v-1h2l-2 -20z" />
    <glyph glyph-name="ellipsis" unicode="&#x2026;" horiz-adv-x="296" 
d="M129 9q-21 0 -26 11q-2 5 0 14l2 3q1 4 -10 23q19 -9 23 -9q9 2 17 5q9 1 15 -9q2 -7 -6 -29q-1 -2 1 -13q-11 4 -16 4zM33 45q8 10 45 10q-4 -20 -4 -21q-4 -13 -11 -17q-15 -12 -29 -2q-16 11 -1 30zM214 9h-18q-11 2 -13 11q-3 5 -3 10q0 8 12 26q14 3 20 3
q13 0 19 -8l-4 -23q-4 -14 -13 -19z" />
    <glyph glyph-name="nonbreakingspace" unicode="&#xa0;" horiz-adv-x="182" 
 />
    <glyph glyph-name="Agrave" unicode="&#xc0;" horiz-adv-x="466" 
d="M440 276h-13q-3 -1 -6 -7q-19 3 -31 -9q-1 -10 -1 -21q0 -31 11 -70q9 -31 19 -69q8 -13 40 -82q4 -4 4 -9q0 -10 -22 -23q-22 9 -44 60q-8 20 -31 72q-7 33 -15 48q-2 27 -11 79q-43 -8 -126 -36q-15 -1 -48 -9q-13 -3 -17 -18q-40 -43 -67 -125q11 12 39 36l-23 -62
q-7 -1 -10 -12q-7 -28 -45 -28q-8 0 -14 2q1 3 1 5q0 5 -3 7q1 53 41 116q26 42 46 82l-23 8q-12 7 -11 20q-1 10 23 27q6 2 12 2q5 0 16.5 -5t17.5 -3q14 22 44 65q18 19 39 50l35 52q5 12 20 33.5t20 33.5q5 3 9 14t6 14q-2 3 3 19q1 2 2 10q9 2 12 12q5 17 18 18
q20 2 35 -7q2 -16 2 -40q0 -23 -2 -55q2 -13 2 -26q0 -33 -12 -61q0 -14 -3 -41q2 -12 7 -36q8 0 24 3t24 3q20 0 32 -13q-13 -18 -26 -24zM335 378q2 49 1 70q-46 -61 -130 -189q34 11 102 25q13 1 29 12q-4 29 -2 82zM394 625q-12 2 -15 2q-4 8 -31 34q-10 6 -26 21
q-8 1 -9 9l-2 2l2 -1l-9 9q-2 3 -2 5q-3 4 -3 8q0 8 8 16q49 -43 106 -70q8 -10 8 -17q0 -9 -9 -15t-18 -3z" />
    <glyph glyph-name="Atilde" unicode="&#xc3;" horiz-adv-x="516" 
d="M440 276h-13q-3 -1 -6 -7q-19 3 -31 -9q-1 -10 -1 -21q0 -31 11 -70q9 -31 19 -69q8 -13 40 -82q4 -4 4 -9q0 -10 -22 -23q-22 9 -44 60q-8 20 -31 72q-7 33 -15 48q-2 27 -11 79q-43 -8 -126 -36q-15 -1 -48 -9q-13 -3 -17 -18q-40 -43 -67 -125q11 12 39 36l-23 -62
q-7 -1 -10 -12q-7 -28 -45 -28q-8 0 -14 2q1 3 1 5q0 5 -3 7q1 53 41 116q26 42 46 82l-23 8q-12 7 -11 20q-1 10 23 27q6 2 12 2q5 0 16.5 -5t17.5 -3q14 22 44 65q18 19 39 50l35 52q5 12 20 33.5t20 33.5q5 3 9 14t6 14q-2 3 3 19q1 2 2 10q9 2 12 12q5 17 18 18
q20 2 35 -7q2 -16 2 -40q0 -23 -2 -55q2 -13 2 -26q0 -33 -12 -61q0 -14 -3 -41q2 -12 7 -36q8 0 24 3t24 3q20 0 32 -13q-13 -18 -26 -24zM335 378q2 49 1 70q-46 -61 -130 -189q34 11 102 25q13 1 29 12q-4 29 -2 82zM437 623q9 4 11 4q24 17 50 66q15 27 25 27t14 -31
l-24 -42q-12 -10 -30 -33t-33 -31q-26 2 -41 27q-6 10 -21 49q-5 13 -16 37.5t-28 26.5q-25 -9 -42 -43q-5 -10 -20 -59q-3 -11 -15 -14t-12 25q0 48 42 103q2 0 6.5 2.5t4.5 6.5q25 19 46 17q27 -8 47 -51q7 -7 12.5 -27.5t14.5 -25.5v-8q0 -2 -2 -3l2 -4q1 -8 5 -6l2 -11
l2 2v-4z" />
    <glyph glyph-name="Otilde" unicode="&#xd5;" horiz-adv-x="531" 
d="M511 356q0 -3 1 -9t1 -9q-2 -4 -7 -9q-12 -59 -68 -133q-6 -5 -19 -33q-88 -89 -117 -112q-76 -60 -144 -60q-9 0 -18 1q-15 4 -40 21q-67 31 -67 108q0 89 90 223q2 4 47 70q56 81 143 131q63 18 87 18q23 0 39 -11h14q64 -70 64 -151q0 -20 -4 -41q-2 -2 -2 -4z
M398 512l2 -4l-12 -12q-3 12 -9 13q-22 0 -52 -22q-22 -17 -39 -21q-176 -180 -201 -342q0 -90 75 -90q57 0 126 63q51 38 57 54q43 43 68 82q53 83 53 169q0 30 -7 56q3 8 -6.5 16.5t-9.5 14.5l-18 16q-9 8 -19 8q-4 0 -8 -1zM437 623q9 4 11 4q24 17 50 66q15 27 25 27
t14 -31l-24 -42q-12 -10 -30 -33t-33 -31q-26 2 -41 27q-6 10 -21 49q-5 13 -16 37.5t-28 26.5q-25 -9 -42 -43q-5 -10 -20 -59q-3 -11 -15 -14t-12 25q0 48 42 103q2 0 6.5 2.5t4.5 6.5q25 19 46 17q27 -8 47 -51q7 -7 12.5 -27.5t14.5 -25.5v-8q0 -2 -2 -3l2 -4q1 -8 5 -6
l2 -11l2 2v-4z" />
    <glyph glyph-name="OE" unicode="&#x152;" horiz-adv-x="561" 
d="M395 86q-2 3 -5 5l3 -3zM199 407l6 3q6 3 5 3q24 8 53 8q32 0 113 -25q55 -17 87 -59q17 -23 31 -49q6 -16 5 -27q3 -11 3 -45q-2 -6 -2 -8l-1 -4q1 -3 -1 -10q-1 -1 -1 -5t-2 -6q-5 -11 -10 -19q0 -3 -3 -6l-1 -1q-3 -4 -7 -10l-6 -7q-9 -13 -51 -45q-6 -5 -16 -10
l-2 -2l-1 1q-16 -11 -36 -18q-2 -2 -15 -7q-8 -2 -13 -3q-11 -5 -25 -7l-1 -2l-26 -1l-1 -1q-5 1 -16 -1q-6 -1 -17 1h-12q-17 2 -19 2l-17 3q-30 10 -45 18h-2q-38 16 -68 48q-7 5 -19 20q-25 26 -32 77q4 38 10 59.5t25 55.5q4 9 26 29l-1 -1q43 36 86 40q1 0 1 1h1l1 1
l2 1q8 8 13 8l1 1v-1zM372 260l3 1q9 2 16 2q21 0 26 -34q2 -15 10 -36q3 -5 3 -9q0 -5 -3 -8l-2 -2q-2 -1 -8 -11q-3 -5 -4 -6l-5 -5q-10 -16 -18 -24q-1 -2 -4 -7l-3 -3q0 -4 -3 -6l-1 -1h-1q-3 -2 -8 -2q-3 0 -6.5 0.5t-13 3t-14.5 2.5l-28 6v-3q3 -11 10 -32
q-4 -11 -12 -11l-2 1v-1q-26 15 -66 55l1 -3q0 -2 1 -7v-8q-4 -5 -8 -6q-2 -1 -7 0q-6 1 -8 1q-9 3 -30.5 3.5t-32.5 5.5q-7 8 -23 23l-24 23q-8 7 -11 18q3 8 8 8l17 41l-2 -1q-18 -3 -16 -3q-9 13 -7 25l12 1l9 9q14 14 30 25q-9 2 -9 11q-1 2 -1 4v4q3 3 10 6q1 0 1 1
q3 8 8 13q6 9 18 25v3q4 6 11 9q1 1 4 3t6 2q2 8 0 8q-5 3 -14 1q-13 -3 -15 -3q-34 -10 -68 -41q-17 -19 -26 -42q0 -5 -3 -8l-2 -3v-1q-2 -7 -6 -19q0 -5 -3 -16.5t-2 -17.5v-3q-1 -2 -1 -3v-3l9 -43q29 -52 81 -79.5t113 -27.5q53 0 83 16q41 8 84.5 46.5t53.5 77.5
q2 18 2 34q0 41 -14 63t-49 54l-56 24q-2 1 -9 3q-12 2 -19 6q-62 12 -75 11q-8 1 -38 -3l-1 -1l-2 -1h-3l-9 -4q7 -5 9 -13q0 -9 -9 -11l-6 -2q1 0 2 -1q6 1 17 4t17 4q1 0 4.5 1t4.5 1q26 4 76 9q4 0 10 1t9 0q8 -4 10 -11l2 -12q4 -12 6 -17q1 -1 1 -2q10 4 33 10h4
q6 2 10 -4.5t3 -12.5q-1 -1 -6 -9q-11 -18 -31 -66zM301 284q10 -2 30 -8q7 -3 21 -8l26 56l-27 -9q-13 17 -18 39q-2 2 -4 8q1 1 0 1q-22 -1 -62 -7q12 -8 34 -26q3 -2 16 -10q10 3 14 -8q0 -15 -11 -15zM349 231q2 -10 5 -31q19 2 30 3.5t15 2.5t1 1v4q-2 11 -9 31
q-14 -3 -42 -11zM256 338l-3 2q-11 2 -15 10q-8 -1 -39 -10q-1 -2 -5 -6v-1q-3 -2 -11 -10q0 -5 -5 -5l-2 -4q-2 -2 -5 -8q17 -1 48 -5q15 17 35 36zM292 265l9 -2l-1 1q-8 2 -13 2q2 0 5 -1zM287 266l-10.5 2t-8.5 9q4 14 27 30q-7 8 -15 12q-3 5 -7 6l-3 -3l-7 -5
q-4 -3 -11 -12l-3 -2q-6 -7 -16 -24q-4 -3 -9 -3q-4 0 -9 3q-6 0 -20 2q7 -17 23 -50q1 -2 5.5 -8.5t4.5 -12.5q2 -11 -9 -11q-4 0 -7 3h-1q-8 6 -14 8q-2 -12 -5 -20q16 4 29 5l2 -4l3 -1q1 0 4 -1q5 -5 7 -12q1 1 26 45q3 3 6 3t7 -2q2 1 5 1q9 0 15 -19l3 -9v-4q9 1 35 5
q-2 12 -3 19l-1 2q-3 2 -5 5q-10 -2 -15 14q3 5 5 6l1 1q9 4 20 7q-29 11 -44 14zM287 266l5 -1q-3 1 -5 1zM316.5 140.5q12.5 -2.5 18.5 -2.5q11 -2 31 -6l2 2q19 22 29 42q1 2 3 5l2 3q-14 0 -41 -5q-2 0 -7.5 -3t-9.5 -3l-2 2q-2 0 -41 -6q-2 0 -5 -2h-11q-6 0 -8 8
q-2 7 2 12l-3 12l-1 -2l-2 -2q0 -2 -15 -25q-4 -6 -10 -20q13 -14 40 -41q-4 18 -5 28q4 8 9 8q3 0 7.5 -1t17 -3.5zM193 236q-5 14 -20 39l-33 -22v-1q8 0 14 -3l4 -5q4 -7 3 -11q-3 -7 -10 -7q-3 0 -7 1q-1 -4 -10 -23q2 2 4.5 6l4.5 7q-2 -4 -4 -7q-6 -11 -16 -35l34 -34
q3 6 3.5 10.5t1.5 10.5l-2 2l-2 1q-3 3 -2 8q0 8 13 12q7 22 8 43q7 12 16 8zM178 133q2 0 4 -1q12 0 36 -2q0 27 -2 41l-32 -6q-6 -26 -6 -32z" />
    <glyph glyph-name="oe" unicode="&#x153;" horiz-adv-x="297" 
d="M313 252q0 -33 -11 -42q-3 -13 -15.5 -34.5t-15.5 -32.5q-33 -42 -113 -114q13 -39 54 -39q22 0 49 -9q-43 -11 -67 -11q-32 0 -48 16q-2 1 -19 21q-6 7 -14 -2q-18 -12 -44 -12q-56 0 -56 48q0 10 4 36q4 3 4 6l1 4q3 13 8 16q26 55 69 92q16 29 73 53q24 0 32 -11
l-16 -18q-17 -19 -28 -21q-12 -6 -27 -21l-25 -25q-61 -72 -55 -123q5 -6 12 -10q23 0 51 24q12 133 137 238q10 8 25 8q31 0 36 -25q-2 -8 -1 -12zM165 79q102 88 111 169q-6 -7 -22 -18q-72 -71 -89 -151z" />
    <glyph glyph-name="endash" unicode="&#x2013;" horiz-adv-x="279" 
d="M274 2q-150 3 -234 -17q-22 3 -36 19q6 19 24 21q27 3 31 4q43 11 135 11q31 0 77 -11l10 -10q0 -11 -7 -17z" />
    <glyph glyph-name="emdash" unicode="&#x2014;" horiz-adv-x="365" 
d="M363 253q-49 1 -143 -7q-111 -9 -172 -24q-20 3 -36 19q7 19 24 21q27 3 31 4q80 21 236 21q31 0 57 -6l10 -11q0 -8 -7 -17z" />
    <glyph glyph-name="quotedblleft" unicode="&#x201c;" horiz-adv-x="219" 
d="M116 507q-1 8 6 32q21 74 85 119q3 -3 11 -5.5t8 -8.5q0 -3 -1.5 -8t-7.5 -9l-2 -2q-6 -4 -7 -9q-31 -47 -38 -60q-18 -35 -21 -68q-6 -6 -15 -6q-16 0 -22 16q4 5 4 9zM16 507q-1 8 6 32q21 74 85 119q3 -3 11 -5.5t8 -8.5q0 -3 -1.5 -8t-7.5 -9l-2 -2q-6 -4 -7 -9
q-31 -47 -38 -60q-18 -35 -21 -68q-6 -6 -15 -6q-16 0 -22 16q4 5 4 9z" />
    <glyph glyph-name="quotedblright" unicode="&#x201d;" horiz-adv-x="219" 
d="M64 542q-6 -4 -11 -4q-18 0 -22 21q14 31 18 74q2 15 2 78q2 5 -1 13l-1 3q-1 4 -1 7t1 6q2 14 13 10q7 -4 11 -3q14 -46 14 -91q0 -36 -10 -71q-7 -25 -10 -30.5t-3 -12.5zM133 557q-12 -6 -21 2t-9 21q20 27 32 69q5 15 17 76q2 5 1 13v3q-1 8 3 13q3 9 8 9q3 0 6 -2
q6 -5 10 -5q2 -18 2 -35q0 -67 -29 -125q-11 -23 -15.5 -27.5t-4.5 -11.5z" />
    <glyph glyph-name="quoteleft" unicode="&#x2018;" horiz-adv-x="46" 
d="M38 635l18 -7q-6 -10 -6 -20t-2 -15q-2 -10 -3 -31q-2 -12 -6 -42q-2 -15 -7 -18h-1q-1 -1 -3 -1l-1 -1q-8 -1 -15 4q-2 13 0 30q1 13 3 28.5t10 43.5q0 2 4 12t9 17z" />
    <glyph glyph-name="quoteright" unicode="&#x2019;" horiz-adv-x="46" 
d="M49 505q-1 -9 -4 -18l-19 1q2 6 2 11t-2 9q-3 11 -3 16q-1 11 -7 31l-7 41q-3 16 1 20l1 1q1 0 2 1l1 1q4 2 9 2q3 0 7 -1q6 -11 9 -28q3 -13 5.5 -28.5t4.5 -44.5v-14z" />
    <glyph glyph-name="divide" unicode="&#xf7;" horiz-adv-x="365" 
d="M363 253q-49 1 -143 -7q-111 -9 -172 -24q-20 3 -36 19q7 19 24 21q27 3 31 4q80 21 236 21q31 0 57 -6l10 -11q0 -8 -7 -17zM188 355q-29 3 -32 31q9 15 15 15q11 2 19 2q28 0 28 -23q-2 -8 -4.5 -15.5t-11.5 -9.5h-14zM186 129q-22 2 -24 24q7 11 11 11q9 2 15 2
q21 0 21 -18q-1 -6 -3 -12t-9 -7h-11z" />
    <glyph glyph-name="lozenge" unicode="&#x25ca;" horiz-adv-x="691" 
d="M253 336q3 3 8 3q3 0 7 -1q2 -6 8 -4q44 16 73 16l120 20q72 13 119 26q11 -10 17 -54q4 -25 8 -53l1 -20q0 -2 2 -4q2 -13 1 -41q0 -10 4 -26q0 -9 2 -31q2 -20 0 -31q-4 -6 -10 -7l5 -5l-11 5q-1 1 -2 1l-1 1q-47 23 -84 27q-8 2 -36 8t-53 13q-29 5 -89 14
q-22 2 -81 9q-6 4 -9 3q2 -13 3 -39q1 -3 3 -8v-3q0 -2 1.5 -7t1.5 -7q2 -11 10 -30v-8q1 1 1 2v-2q0 -6 -4.5 -8.5t-8.5 -2.5q-5 0 -7 7l-1 1l-6 1q-48 46 -92 72v1l-33 19q-1 3 -11 7q-3 2 -29 24q-13 11 -22 17q0 -2 -1 -5l-5 -2q-7 -3 -13 0l-2 2l-2 1q-5 2 -5 9
q1 3 8 14q2 2 -2 9q2 1 5.5 5.5t8.5 4.5q4 -1 5 0q3 4 6 11l89 87q10 6 36 31q9 8 31 31q5 5 12 3q6 -2 10 -18q2 -3 10 -12h-8q1 -6 3 -36q1 -12 4 -23q1 -6 5 -17zM218 221v1q1 5 6 8q1 0 2 -1v2q0 7 5 11t20 -4q21 -11 22 -11q18 -3 55 -8q6 0 21.5 -4t25.5 -3q5 0 14 -4
q15 -1 39 -7q8 -2 23 -4q3 -1 38 -9q25 -3 86 -17q7 -2 25 -10v2l-2 1l2 -2q-12 5 -12 27q0 9 -3 26l-1 2q0 87 -5 127h-4q-5 2 -7 6q-1 8 2 11l-3 1v1q-1 0 -1 1l-1 1l-1 -1l-2 -1q-6 -2 -43.5 -8.5l-111.5 -18.5q-9 1 -26 -3.5t-29 -6.5q-1 -1 -4 -1h-4q-2 0 -5 -3
q-13 -1 -42 -8.5t-37 -13.5h-4l-1 -1l-2 -1q-4 -6 -8 -6t-8 8q-8 13 -7 17q-4 22 -9 67q-14 -12 -43 -34q-21 -23 -44 -41q-11 -12 -32 -39q0 -4 -12 -18q-2 -1 -4 -1q24 -21 61 -48v1q32 -18 90 -62q-3 19 -6 50q-6 -3 -10 -3q-6 0 -10 6q-2 17 7 26zM119 324l1 1l-3 -1h2z
" />
    <glyph glyph-name="ydieresis" unicode="&#xff;" horiz-adv-x="289" 
d="M222 79q-25 -38 -23 -57q-61 -102 -85 -138q-49 -75 -96 -132q-42 -37 -58 -46q-32 -19 -72 -19q121 97 232 290q-1 5 -24 23q-40 31 -52 124l-14 123q3 25 16 25q11 0 20.5 -15.5t9.5 -27.5q1 -60 9 -121t55 -88q62 106 102 202q22 9 24 9q7 0 11 -7l10 -10
q-7 -26 -31 -68q-26 -46 -34 -67zM137 370q-3 -29 -31 -32q-15 9 -15 15q-2 11 -2 19q0 28 23 28q8 -2 15.5 -4.5t9.5 -11.5v-14zM263 368q-2 -22 -24 -24q-11 7 -11 11q-2 9 -2 15q0 21 18 21q6 -1 12 -3t7 -9v-11z" />
    <glyph glyph-name="Ydieresis" unicode="&#x178;" horiz-adv-x="398" 
d="M-5 -38v-3h-14q4 19 22 29q14 8 15 18q36 28 68 64l60 71q12 13 29 43q9 9 21 28q-15 24 -13 35q-10 12 -30 69l11 4q-17 48 -26 120q-7 62 -13 123q3 10 17 28q4 1 8 1q13 0 21 -15l2 -3q1 -2 3 -5q-1 -19 4 -118q6 -128 44 -195q45 52 96 157q8 17 44 79q9 22 22 67
q16 8 24 8q16 0 16 -23q0 -8 -18 -45q-6 -11 -6 -22q-9 -4 -9 -11q-2 -10 -7 -15h-1q-10 -22 -69 -131l-43 -62q-1 -3 -23 -32q-12 -16 0 -28l-3 -12q-15 -8 -42 -29q-28 -29 -81 -93q-15 -10 -59 -57q-34 -36 -70 -45zM247 700q-3 -29 -31 -32q-15 9 -15 15q-2 11 -2 19
q0 28 23 28q8 -2 15.5 -4.5t9.5 -11.5v-14zM373 698q-2 -22 -24 -24q-11 7 -11 11q-2 9 -2 15q0 21 18 21q6 -1 12 -3t7 -9v-11z" />
    <glyph glyph-name="fraction" unicode="&#x2215;" horiz-adv-x="395" 
d="M343 -47v0v0v0zM247 -33h1v0h-1zM245 -45h-2h2zM-398 -52v3q0 -1 -1 -1v-1zM-254 -42l7 2h-8zM-204 -46q-3 0 0 -2v1v1zM-167 -38l9 2q3 1 14 3q-13 -3 -23 -5zM-143 -45h1q-1 1 -1 0zM-95 -45l3 3q-2 0 -2 2zM-96 -46l-1 1l-1 -2h1zM-710 -101q-17 -3 -49 -10
q-10 -2 -26 -7q-2 0 -136 -40q-7 -2 -19 -8q-18 -7 -57 -21q-7 17 -7 21q4 6 13 9t11 5l37 12q7 1 19 7q10 2 27.5 8.5t68.5 21.5q2 1 49 10l73 16q-6 0 40 7q2 -1 5 -1t8 2l66 8q2 0 29 5q17 3 29 2q16 6 35 4q3 3 8 1h2q1 -2 5 2q45 3 135 10l126 6q-2 1 22 1q2 1 7 1h111
q9 0 14 2q27 1 81 0l80 -1q14 0 44 -2q18 2 87 -3v1h18v-1h2v0l7 -2l20 -1l-7 -2l18 -4q5 7 10 7l3 -3v1l6 1v0h2l17 2l-2 -2q10 0 18 -3h5q2 2 4 2h7v-3q5 -1 14 -5q13 5 26 3v-7q4 -1 10 -3v7q-1 -1 -3 -1l1 1q3 3 6 3t7 -6v-9h-1l8 -4l-50 7v-1q-7 0 -13 2l-9 2
q-3 -2 -6 0h-5l-1 -2q-2 1 -4 1v-1h-14v2q-5 -2 -11 0q-1 2 -1 3h-2l-2 -2l1 -1h-2q-3 0 -5 2q-4 -5 -8 -3l-3 1v3h-7l2 3h-39h-2h-10l-5 -1q-4 0 -6 1v-8l-15 8q-7 0 -15 1q-3 0 -10 -2h-4l-2 4l-1 -1h-45l-2 -1q-3 -3 -6 -3q-4 0 -6 3h-38v1l-5 -2h-24q-4 0 -6 1l-2 -2
q-14 0 -45 2q-4 -4 -10 -3q-7 1 -10 1q-6 3 -10 3q-3 0 -5 -1q-7 -2 -14 -2t-13 2q-12 -3 -28 -2q2 -1 6 -2q-5 0 -9 1l-1 -1v1q-16 1 -34 0h-5q-3 1 -4 1h-3l-2 -1h-9q-9 0 -26 -3q-3 2 -6 1q-6 -1 -11 2q-9 -2 -19 -4h-20v-1h-18v2l-72 -7l2 -1q-9 1 -10 1h-4q-2 0 -6 1
q-10 -2 -16 -2l-4 2l-2 10q0 -2 -3 -6q1 0 0 -1v0q0 -7 -8 -7l-2 1h-2h-1v0l-5 -1v0q-6 -2 -13 -2l-25 -4l6 3q-37 -4 -42 -4l-1 1q-11 -3 -31.5 -5t-33.5 -3q-9 0 -28 -6q-2 1 -16 0q-8 0 -29.5 -4t-31.5 -3l-1 -5q-5 1 -7 3q-4 -2 -10 -2q-21 -4 -59 -10zM-249 -40h-1h1v0
zM-250 -41l1 1l1 -1h-2z" />
    <glyph glyph-name="guilsinglleft" unicode="&#x2039;" horiz-adv-x="404" 
d="M415 333q-7 0 -19 -8q-21 -2 -62.5 -16t-63.5 -16q-6 -9 -11 -44q-4 -30 -18 -43q1 -13 -19 -53q-4 -8 -5 -22q-14 -2 -17 -14q-5 -22 -6 -23q-6 -8 -13 -9q-13 -34 -81 -95q-18 -5 -30 -5q-11 0 -28 5q-32 63 -32 151q0 69 20 143q3 11 14 11q4 0 6 -1h8q8 -24 8 -50
q0 -18 -5.5 -55t-5.5 -55q0 -36 12 -107l17 -4q111 100 148 238q4 8 4 18q0 7 -2.5 21.5t-2.5 21.5q0 18 11 33q15 -11 31 -11q12 0 37.5 8t38.5 8q56 8 51 8q19 0 33 -10q2 -23 -18 -25z" />
    <glyph glyph-name="guilsinglright" unicode="&#x203a;" horiz-adv-x="684" 
d="M553 294q-12 -9 -38 -21q-10 -5 -30 -21q-9 3 -13 12q5 13 34 25q9 4 24 12q8 2 22 10h9q0 -14 -8 -17zM433 392q-1 -4 -6 -7h-1q-5 -9 -16 -27q0 -3 -3 -9l-2 -3q-3 -3 -3 -8t-4 -14q3 -14 -11 -14q-4 0 -8 3q-2 25 31 75q4 6 21 20l4 -4q3 -3 3 -12h-5zM614 46
q-29 8 -33 8q-12 3 -36 14q-3 8 4 14v-1q-1 0 -1 -1l7 4q46 -13 101 -48q-37 8 -42 10zM272 248q29 25 73 25q24 0 46 -9q10 -2 20 -6q17 -12 47 -41q27 -50 27 -96q0 -59 -30 -91q-22 -33 -87 -83l-4 -1q-2 -2 -8 -5q-18 -15 -77 -37q-12 -5 -48.5 -13t-118.5 -6
q-8 -1 -28 1q-6 0 -21 4t-23 3l-5 3h-3q-9 0 -10 10q0 8 23 21q15 7 30 15q19 12 37 35q28 37 28 99q0 20 -3 44q0 41 18 61v1q2 2 38 36q15 8 47 20q-15 12 -51 57q-30 30 -58 50q-9 5 -28 13l-7 -7l-3 -4q-10 -13 -28 -15q2 13 16 38q6 6 14 15.5t19 12.5q25 -6 85 -49
q12 -9 24 -29q15 -23 22 -30q9 -14 25 -41h1q0 -1 1 -1zM82 -85h5q7 -1 19 -4q50 -2 71 -1q152 8 255 132q9 11 22 36q9 24 9 47t-8 45q-8 38 -55 67q-27 9 -52 9q-20 0 -36 -6q-7 0 -18 -6t-15 -7v-3q-1 -5 10 -30q29 -66 26 -114q-1 -9 -3 -16q0 -11 -5 -18q1 -13 -10 -34
q-5 -9 -21 -14q4 17 9 46q7 21 7 44q0 48 -32 111q-1 2 -9 14q-3 3 -7 1q-16 -6 -44 -22q-39 -31 -39 -72q0 -6 2 -18t2.5 -21t0.5 -19q0 -30 -13 -68q1 -6 -5 -12l-2 -2q-2 -4 -2 -6q-7 -14 -28 -36q-1 -1 -4 -2l-1 -2l-2 -2q-7 -7 -27 -17z" />
    <glyph glyph-name="fi" unicode="&#xfb01;" horiz-adv-x="366" 
d="M369 425l-3 -2q-2 -2 -4 -10q-48 -4 -51 23q0 16 11 20q4 1 24 0q5 0 13 3q8 -3 17 -18q1 -8 -7 -16zM353 41q-9 -15 -30 -43q-39 -24 -57 -23t-40 30q-2 18 -2 36q0 49 51 217q4 14 19 48l-109 -16q-17 2 -47 -2q-14 -37 -21 -60q-9 -29 -38 -133q-33 -118 -33 -130
q-7 -9 -7 -26q10 -7 10 -18q0 -4 -5 -22q-2 -1 -6.5 -10.5t-13.5 -11.5q-18 5 -28 36q0 15 7 46q1 6 19 77q17 64 17 70q2 2 14 42q12 37 13 43.5t8 25t9 20.5q8 30 11 45q-4 1 -14 -1t-13 -2q-15 0 -18 18v21q8 4 16 4q4 1 17 1q13 -1 16 -1q21 1 20 22q5 9 49 114
q30 70 55 111l37 32q10 8 21 8q15 0 26 -20q2 -13 2 -24q0 -28 -14 -45q3 -7 7 -13q2 -6 -2 -17q-4 0 -5 -1v-9q-6 -3 -8 -9l-1 -5q-3 -15 -14 -19q-12 -3 -20 9l-2 3q-1 2 -6 6q11 27 26 80l-1 10q-2 -1 -14 -16q0 -18 -12 -18q-50 -96 -83 -174l-3 -12q11 -2 29 2t125 4
q16 0 31 -11v-5q1 -2 1 -3v-3q4 -5 4 -11q0 -5 -3 -9q-25 -41 -44 -96l-22 -64q-18 -51 -13 -113q2 -6 10 -16q4 -1 12 6.5t11 8.5q12 8 33 31t37 30l23 27q-18 -60 -37 -72z" />
    <glyph glyph-name="fl" unicode="&#xfb02;" horiz-adv-x="336" 
d="M443 522q-2 -14 -2 -27q-10 -39 -41 -93q-38 -66 -81 -103q-3 -3 -24 -17l-14 -19q3 -7 -4 -12q2 0 -12 -45q-2 -8 -6 -36q-6 -7 -8.5 -26.5t-8.5 -26.5l-37 -139q-5 -25 -2 -39q-1 -4 -1 -8q0 -10 6 -25q9 1 23.5 12t18.5 13q11 5 30 3q-19 -33 -47 -55q-5 0 -14.5 -4
t-14.5 -4q-6 1 -14 6q-30 31 -25 99q31 99 38 133q14 66 40 151q-26 -10 -98 -30q-17 -3 -47 -12q-14 -37 -21 -59t-33 -134q-28 -117 -28 -130q-7 -9 -7 -26q10 -7 10 -18q0 -4 -5 -22q-2 -1 -6.5 -10.5t-13.5 -11.5q-18 5 -28 36q0 15 6 46q17 79 17 77q2 2 19 67l18 69
q11 60 17 65q8 30 11 45q-4 1 -14 -1t-13 -2q-15 0 -18 18v21q8 4 16 4q4 1 17 1q13 -1 16 -1q21 1 20 22q4 11 39 94q30 70 55 111l37 32q10 8 21 8q15 0 26 -20q2 -13 2 -24q0 -28 -14 -45q0 -3 2 -10q1 -3 -2 -11q-2 0 -1 -5l1 -5v-9q-6 -3 -8 -9l-1 -5q-3 -15 -14 -19
q-12 -3 -20 9l-2 3q-1 2 -6 6q11 27 26 80l-1 10q-2 -1 -14 -16q0 -7 -4 -10l-8 -8q-42 -80 -73 -154l-3 -12q11 -2 29 2q10 1 26.5 5.5t76.5 33.5q10 18 27 55q11 32 26 70q5 12 31 56q30 51 40 54q50 20 61 6q10 -11 10 -25zM404 501q-3 2 -8 5q-13 -10 -37 -55l-34 -64
q-9 -32 -16 -47v1l48 50q15 17 47 110z" />
    <glyph glyph-name="daggerdbl" unicode="&#x2021;" horiz-adv-x="270" 
d="M75 70q7 31 20 66q0 3 2 7l1 2q2 3 1 6q8 12 8 17q6 13 21 38q0 4 2 6l2 2q4 7 10.5 16.5l26.5 37.5q0 5 5 8h1q2 5 3 6l1 1q5 5 34 42q3 -1 4 2q15 15 46 40q8 4 17 12l9 -8q-15 -14 -43 -44l-43 -45q0 -5 -5 -7l-2 -1l-4 -7q-6 -11 -12 -19l-3 -1q0 -4 -3 -7l-2 -2
l-15 -25q-4 -8 -16 -29v-1l-4 -8l-4 3l-9 -15q0 -5 -5 -15t-4.5 -15t-2.5 -10l-2 -2q-2 -4 -2 -11l-2 -3q0 -1 -1 1h-1l5 -6q0 -3 -3 -9t-1 -11l-2 -2q0 3 -3 -12l2 -9h-3q-3 -43 -2 -47v-1l1 -3q1 -2 1 -4q0 -12 -11 -12q-4 0 -10 2q0 5 -3 8l-2 3q-2 2 -4 8q-9 30 -30 83
q0 14 11 14q10 -2 19 -24q2 -4 6 -16z" />
    <glyph glyph-name="periodcentered" unicode="&#xb7;" horiz-adv-x="265" 
d="M131 254h-26q-15 3 -18 16q-4 7 -4 14q0 11 17 37q20 5 29 5q18 0 27 -12l-6 -33q-6 -19 -19 -27z" />
    <glyph glyph-name="periodcentered" unicode="&#x2219;" horiz-adv-x="265" 
d="M131 254h-26q-15 3 -18 16q-4 7 -4 14q0 11 17 37q20 5 29 5q18 0 27 -12l-6 -33q-6 -19 -19 -27z" />
    <glyph glyph-name="quotesinglbase" unicode="&#x201a;" horiz-adv-x="180" 
d="M112 45q0 -8 -6 -32q-22 -74 -85 -119q-3 3 -11 5.5t-8 8.5q0 3 1.5 8t7.5 9l2 2q6 4 7 9q31 47 38 60q18 35 21 68q6 6 15 6q16 0 22 -16q-4 -5 -4 -9z" />
    <glyph glyph-name="quotedblbase" unicode="&#x201e;" horiz-adv-x="219" 
d="M112 45q1 -8 -6 -32q-21 -74 -85 -119q-3 3 -11 5.5t-8 8.5q0 3 1.5 8t7.5 9l2 2q6 4 7 9q31 47 38 60q18 35 21 68q6 6 15 6q16 0 22 -16q-4 -5 -4 -9zM212 45q1 -8 -6 -32q-21 -74 -85 -119q-3 3 -11 5.5t-8 8.5q0 3 1.5 8t7.5 9l2 2q6 4 7 9q31 47 38 60q18 35 21 68
q6 6 15 6q16 0 22 -16q-4 -5 -4 -9z" />
    <glyph glyph-name="perthousand" unicode="&#x2030;" horiz-adv-x="385" 
d="M377 581h-1l-37 -17q-2 -3 -7 -3t-11 2q4 9 10 14q14 8 51 19q2 -9 -2 -13l3 1l-4 -2q-1 0 -2 -1zM296 638q-11 -13 -18 -25q-5 -6 -12 -9q-3 6 -3 10q0 3 1 5l1 2q6 12 31 36l12 -2q-5 -6 -12 -17zM340 489l3 1q6 0 37 -6q13 -3 33 -15q-11 -4 -17 -4q-4 0 -6 2
q-37 7 -61 11q5 12 11 12v-1zM200 628q3 -3 3 -8q0 -4 -3 -7.5t-6 -3.5q-4 0 -6 6l-1 1q-6 23 -15 32l-2 1h-7q0 14 9 14q11 0 19 -14l3 -5l1 -2q2 -4 5 -11v-3zM212 439q-15 3 -43 22q-16 22 -21 35q-11 21 -2 47l1 3q0 1 4 10q6 15 22.5 28t32.5 13h6q6 7 21 7l4 -2h3
q6 -2 11 -2q6 -3 15 -9q25 -17 40 -57q2 -24 -1 -41q0 -2 -1 -4q-2 -8 -12 -24q-3 -1 -5 -6q-9 -6 -33 -24l13 11q-1 -1 -2 -1q-16 -8 -35 -8q-8 0 -17 2h-1zM160 523q2 -3 0 -6q-1 -8 15 -37q8 -10 27 -20l1 -1h2q12 -5 25 -5q12 0 25 4q39 18 36 57l-1 14q-1 2 -9 20v1
q-1 0 -1 1v-2q-12 18 -25 29l-2 1q-4 0 -8 4t-25 17q9 -8 15 -14l4 -3q-6 1 -34 -2q-2 -1 -5 -1q-16 -7 -32 -26q-8 -16 -8 -31zM330 377l-8 8q-10 9 -27 30q0 9 7 9q8 -2 13.5 -8.5l10.5 -12.5l4 -5q2 0 2 -2q15 -15 19 -32q-11 0 -21 13zM107 588l-2 2h1q5 -1 7 -3l5 -2
q7 -2 18 -13q3 -13 -6 -13q-3 0 -5 1q-4 8 -16 13l-5 1l-2 1q1 0 1 1h-1l-1 -1q-15 4 -32 4q-5 -1 -14 -4q-2 5 -2 8q0 4 2 6h1q0 1 1 2q8 3 19 3t27 -3l-4 -1zM214 353q1 0 3 -1q-7 -3 -10 4q0 22 4 41q0 1 1 1v3q1 2 5 8q9 2 13 -7q-3 -15 -10 -46zM50 445l-2 -2q2 1 3 0
q-7 -3 -13 5q8 13 21 22q27 19 47 25q7 2 11 -6q0 -9 -7 -9q-1 0 -4.5 -1.5t-5.5 -1.5q-22 -12 -32 -19q-4 -5 -15 -13h-3zM122 383q-1 -2 -4 -5l-1 -2q-5 -3 -3 -3q-1 -1 -3 -1q-3 0 -7 2q0 9 13 29l13 20l3 3l2 4q2 3 8 8q10 3 12 -9z" />
    <glyph glyph-name="Acircumflex" unicode="&#xc2;" horiz-adv-x="466" 
d="M440 276h-13q-3 -1 -6 -7q-19 3 -31 -9q-1 -10 -1 -21q0 -31 11 -70q9 -31 19 -69q8 -13 40 -82q4 -4 4 -9q0 -10 -22 -23q-22 9 -44 60q-8 20 -31 72q-7 33 -15 48q-2 27 -11 79q-43 -8 -126 -36q-15 -1 -48 -9q-13 -3 -17 -18q-40 -43 -67 -125q11 12 39 36l-23 -62
q-7 -1 -10 -12q-7 -28 -45 -28q-8 0 -14 2q1 3 1 5q0 5 -3 7q1 53 41 116q26 42 46 82l-23 8q-12 7 -11 20q-1 10 23 27q6 2 12 2q5 0 16.5 -5t17.5 -3q14 22 44 65q18 19 39 50l35 52q5 12 20 33.5t20 33.5q5 3 9 14t6 14q-2 3 3 19q1 2 2 10q9 2 12 12q5 17 18 18
q20 2 35 -7q2 -16 2 -40q0 -23 -2 -55q2 -13 2 -26q0 -33 -12 -61q0 -14 -3 -41q2 -12 7 -36q8 0 24 3t24 3q20 0 32 -13q-13 -18 -26 -24zM335 378q2 49 1 70q-46 -61 -130 -189q34 11 102 25q13 1 29 12q-4 29 -2 82zM423 596q-5 -5 -10 -5q-12 0 -13.5 15t-4.5 37
q-4 46 -17 75q-22 -17 -34 -48q-1 -4 -7 -11q0 -4 -4.5 -10t-5.5 -8t-6 -6q0 -1 -3 -2l3 2q-5 3 -11 7t-6 11q0 5 4 11q16 28 29 45q6 3 12 11t12 11q12 6 30 0q7 -9 12 -28q6 -23 10 -30v-3q0 -4 3 -5l-1 -6q5 -34 7 -51q0 -3 1 -12z" />
    <glyph glyph-name="Ecircumflex" unicode="&#xca;" horiz-adv-x="486" 
d="M372 514q-49 -5 -85 -19q-22 0 -27 -6q-5 -19 -25 -37q-12 -11 -28 -32q-10 -24 -31 -60l-20 -50q6 -2 11 -2t21.5 6t24.5 7q22 3 32 10q14 4 166 61l41 -4q-33 -33 -48 -33q-19 -18 -57 -33q-53 -21 -61 -26q-21 -5 -64 -26q-27 0 -86 -23q-39 -82 -39 -150q0 -14 2 -26
q13 -48 45 -51q50 -4 105 36l102 77q1 -20 -13 -39q-4 -5 -29 -30q-78 -93 -168 -87q-77 28 -90 81q-10 77 7 120q10 25 22 69q-20 9 -19 34q6 6 20 10.5t18 7.5q1 15 16 42t16 42q8 3 10 12.5t5 12.5q15 26 48 75q-2 2 -31 8l-11 17q-1 4 -1 7q0 23 53 22q35 -1 43 1
q93 19 170 19q51 0 97 -8l6 -14q-29 -9 -148 -21zM423 596q-5 -5 -10 -5q-12 0 -13.5 15t-4.5 37q-4 46 -17 75q-22 -17 -34 -48q-1 -4 -7 -11q0 -4 -4.5 -10t-5.5 -8t-6 -6q0 -1 -3 -2l3 2q-5 3 -11 7t-6 11q0 5 4 11q16 28 29 45q6 3 12 11t12 11q12 6 30 0q7 -9 12 -28
q6 -23 10 -30v-3q0 -4 3 -5l-1 -6q5 -34 7 -51q0 -3 1 -12z" />
    <glyph glyph-name="Aacute" unicode="&#xc1;" horiz-adv-x="466" 
d="M440 276h-13q-3 -1 -6 -7q-19 3 -31 -9q-1 -10 -1 -21q0 -31 11 -70q9 -31 19 -69q8 -13 40 -82q4 -4 4 -9q0 -10 -22 -23q-22 9 -44 60q-8 20 -31 72q-7 33 -15 48q-2 27 -11 79q-43 -8 -126 -36q-15 -1 -48 -9q-13 -3 -17 -18q-40 -43 -67 -125q11 12 39 36l-23 -62
q-7 -1 -10 -12q-7 -28 -45 -28q-8 0 -14 2q1 3 1 5q0 5 -3 7q1 53 41 116q26 42 46 82l-23 8q-12 7 -11 20q-1 10 23 27q6 2 12 2q5 0 16.5 -5t17.5 -3q14 22 44 65q18 19 39 50l35 52q5 12 20 33.5t20 33.5q5 3 9 14t6 14q-2 3 3 19q1 2 2 10q9 2 12 12q5 17 18 18
q20 2 35 -7q2 -16 2 -40q0 -23 -2 -55q2 -13 2 -26q0 -33 -12 -61q0 -14 -3 -41q2 -12 7 -36q8 0 24 3t24 3q20 0 32 -13q-13 -18 -26 -24zM335 378q2 49 1 70q-46 -61 -130 -189q34 11 102 25q13 1 29 12q-4 29 -2 82zM346 664q34 44 81 50q1 -3 4 -8t1 -11t-9 -7h-1
q-6 -1 -7 -5q-30 -18 -39 -26q-21 -19 -32 -40q-8 -3 -12.5 6t-3.5 17z" />
    <glyph glyph-name="Edieresis" unicode="&#xcb;" horiz-adv-x="486" 
d="M372 514q-49 -5 -85 -19q-22 0 -27 -6q-5 -19 -25 -37q-12 -11 -28 -32q-10 -24 -31 -60l-20 -50q6 -2 11 -2t21.5 6t24.5 7q22 3 32 10q14 4 166 61l41 -4q-33 -33 -48 -33q-19 -18 -57 -33q-53 -21 -61 -26q-21 -5 -64 -26q-27 0 -86 -23q-39 -82 -39 -150q0 -14 2 -26
q13 -48 45 -51q50 -4 105 36l102 77q1 -20 -13 -39q-4 -5 -29 -30q-78 -93 -168 -87q-77 28 -90 81q-10 77 7 120q10 25 22 69q-20 9 -19 34q6 6 20 10.5t18 7.5q1 15 16 42t16 42q8 3 10 12.5t5 12.5q15 26 48 75q-2 2 -31 8l-11 17q-1 4 -1 7q0 23 53 22q35 -1 43 1
q93 19 170 19q51 0 97 -8l6 -14q-29 -9 -148 -21zM317 650q-3 -29 -31 -32q-15 9 -15 15q-2 11 -2 19q0 28 23 28q8 -2 15.5 -4.5t9.5 -11.5v-14zM443 648q-2 -22 -24 -24q-11 7 -11 11q-2 9 -2 15q0 21 18 21q6 -1 12 -3t7 -9v-11z" />
    <glyph glyph-name="Egrave" unicode="&#xc8;" horiz-adv-x="486" 
d="M372 514q-49 -5 -85 -19q-22 0 -27 -6q-5 -19 -25 -37q-12 -11 -28 -32q-10 -24 -31 -60l-20 -50q6 -2 11 -2t21.5 6t24.5 7q22 3 32 10q14 4 166 61l41 -4q-33 -33 -48 -33q-19 -18 -57 -33q-53 -21 -61 -26q-21 -5 -64 -26q-27 0 -86 -23q-39 -82 -39 -150q0 -14 2 -26
q13 -48 45 -51q50 -4 105 36l102 77q1 -20 -13 -39q-4 -5 -29 -30q-78 -93 -168 -87q-77 28 -90 81q-10 77 7 120q10 25 22 69q-20 9 -19 34q6 6 20 10.5t18 7.5q1 15 16 42t16 42q8 3 10 12.5t5 12.5q15 26 48 75q-2 2 -31 8l-11 17q-1 4 -1 7q0 23 53 22q35 -1 43 1
q93 19 170 19q51 0 97 -8l6 -14q-29 -9 -148 -21zM344 605q-12 2 -15 2q-4 8 -31 34q-10 6 -26 21q-8 1 -9 9l-2 2l2 -1l-9 9q-2 3 -2 5q-3 4 -3 8q0 8 8 16q49 -43 106 -70q8 -10 8 -17q0 -9 -9 -15t-18 -3z" />
    <glyph glyph-name="Iacute" unicode="&#xcd;" horiz-adv-x="216" 
d="M209 465q-3 -7 -9 -23q-5 -7 -10.5 -27t-15.5 -29l-41 -147q-22 -82 -23 -151q-12 -20 -12 -47q0 -21 7 -41q8 -6 5 -26q-24 -1 -37 20q-4 7 -16 43q2 31 12 110q23 147 75 300q5 14 19.5 37.5t19.5 34.5q10 11 35 11q13 -10 13 -25q0 -10 -6 -23q-10 -6 -16 -17z
M231 643q44 40 105 45q2 -2 6.5 -7t0.5 -11q-4 -5 -11 -5l-2 -1q-7 0 -9 -4q-39 -17 -50 -24q-27 -17 -42 -36q-9 -2 -16 4.5t-5 15.5q5 3 6.5 6t16.5 17z" />
    <glyph glyph-name="Icircumflex" unicode="&#xce;" horiz-adv-x="216" 
d="M209 465q-3 -7 -9 -23q-5 -7 -10.5 -27t-15.5 -29l-41 -147q-22 -82 -23 -151q-12 -20 -12 -47q0 -21 7 -41q8 -6 5 -26q-24 -1 -37 20q-4 7 -16 43q2 31 12 110q23 147 75 300q5 14 19.5 37.5t19.5 34.5q10 11 35 11q13 -10 13 -25q0 -10 -6 -23q-10 -6 -16 -17z
M303 596q-5 -5 -10 -5q-12 0 -13.5 15t-4.5 37q-4 46 -17 75q-22 -17 -34 -48q-1 -4 -7 -11q0 -4 -4.5 -10t-5.5 -8t-6 -6q0 -1 -3 -2l3 2q-5 3 -11 7t-6 11q0 5 4 11q16 28 29 45q6 3 12 11t12 11q12 6 30 0q7 -9 12 -28q6 -23 10 -30v-3q0 -4 3 -5l-1 -6q5 -34 7 -51
q0 -3 1 -12z" />
    <glyph glyph-name="Idieresis" unicode="&#xcf;" horiz-adv-x="216" 
d="M209 465q-3 -7 -9 -23q-5 -7 -10.5 -27t-15.5 -29l-41 -147q-22 -82 -23 -151q-12 -20 -12 -47q0 -21 7 -41q8 -6 5 -26q-24 -1 -37 20q-4 7 -16 43q2 31 12 110q23 147 75 300q5 14 19.5 37.5t19.5 34.5q10 11 35 11q13 -10 13 -25q0 -10 -6 -23q-10 -6 -16 -17z
M217 650q-3 -29 -31 -32q-15 9 -15 15q-2 11 -2 19q0 28 23 28q8 -2 15.5 -4.5t9.5 -11.5v-14zM343 648q-2 -22 -24 -24q-11 7 -11 11q-2 9 -2 15q0 21 18 21q6 -1 12 -3t7 -9v-11z" />
    <glyph glyph-name="Igrave" unicode="&#xcc;" horiz-adv-x="216" 
d="M209 465q-3 -7 -9 -23q-5 -7 -10.5 -27t-15.5 -29l-41 -147q-22 -82 -23 -151q-12 -20 -12 -47q0 -21 7 -41q8 -6 5 -26q-24 -1 -37 20q-4 7 -16 43q2 31 12 110q23 147 75 300q5 14 19.5 37.5t19.5 34.5q10 11 35 11q13 -10 13 -25q0 -10 -6 -23q-10 -6 -16 -17z
M244 605q-12 2 -15 2q-4 8 -31 34q-10 6 -26 21q-8 1 -9 9l-2 2l2 -1l-9 9q-2 3 -2 5q-3 4 -3 8q0 8 8 16q49 -43 106 -70q8 -10 8 -17q0 -9 -9 -15t-18 -3z" />
    <glyph glyph-name="Oacute" unicode="&#xd3;" horiz-adv-x="531" 
d="M511 356q0 -3 1 -9t1 -9q-2 -4 -7 -9q-12 -59 -68 -133q-6 -5 -19 -33q-88 -89 -117 -112q-76 -60 -144 -60q-9 0 -18 1q-15 4 -40 21q-67 31 -67 108q0 89 90 223q2 4 47 70q56 81 143 131q63 18 87 18q23 0 39 -11h14q64 -70 64 -151q0 -20 -4 -41q-2 -2 -2 -4z
M398 512l2 -4l-12 -12q-3 12 -9 13q-22 0 -52 -22q-22 -17 -39 -21q-176 -180 -201 -342q0 -90 75 -90q57 0 126 63q51 38 57 54q43 43 68 82q53 83 53 169q0 30 -7 56q3 8 -6.5 16.5t-9.5 14.5l-18 16q-9 8 -19 8q-4 0 -8 -1zM386 667q32 31 76 35q1 -2 4.5 -5.5t0.5 -8.5
q-3 -3 -8 -4h-2q-5 -1 -6 -3q-28 -13 -36 -19q-19 -13 -30 -28q-7 -1 -12 4t-3 12q6 6 16 17z" />
    <glyph glyph-name="Ocircumflex" unicode="&#xd4;" horiz-adv-x="531" 
d="M511 356q0 -3 1 -9t1 -9q-2 -4 -7 -9q-12 -59 -68 -133q-6 -5 -19 -33q-88 -89 -117 -112q-76 -60 -144 -60q-9 0 -18 1q-15 4 -40 21q-67 31 -67 108q0 89 90 223q2 4 47 70q56 81 143 131q63 18 87 18q23 0 39 -11h14q64 -70 64 -151q0 -20 -4 -41q-2 -2 -2 -4z
M398 512l2 -4l-12 -12q-3 12 -9 13q-22 0 -52 -22q-22 -17 -39 -21q-176 -180 -201 -342q0 -90 75 -90q57 0 126 63q51 38 57 54q43 43 68 82q53 83 53 169q0 30 -7 56q3 8 -6.5 16.5t-9.5 14.5l-18 16q-9 8 -19 8q-4 0 -8 -1zM504 599q-4 -2 -8 -2q-15 0 -12 18q3 15 7 37
q8 45 3 77q-25 -10 -45 -37q-2 -4 -8.5 -8.5t-15.5 -14.5q-2 -2 -8 -4q0 -1 -4 -1l4 1l-7 8q-5 4 -5 10t8 13q23 23 40 35q7 2 15 8t14 7q14 3 29 -8q4 -11 4 -31q-1 -24 1 -31q0 -2 -1 -3q-1 -4 1 -6l-2 -5q-4 -34 -7 -51q-1 -3 -3 -12z" />
    <glyph glyph-name="apple" horiz-adv-x="293" 
d="M208 -5q-12 -1 -22 4l-20 10q-10 18 -23 55q-3 -3 -7 -14q-28 -44 -35 -50q-23 -25 -56 -20q-36 25 -36 80q0 26 11 75q25 112 100 173q11 2 32 -8q12 -10 8 -53q-1 -12 -17 -33q-2 -9 -21 -14q0 24 9 37q0 1 3 16q1 6 -2 13q3 4 3 5v2q-3 1 -12 -10q-12 -14 -13 -15
q-70 -104 -70 -182q0 -12 1 -24q5 -25 21 -31q27 9 48 50q29 57 46 127q14 57 11 81q2 10 20 16q12 -10 12 -24q0 -6 -2.5 -17t-3 -17.5t-11.5 -59.5q-7 -35 -7 -58q0 -32 12 -60q8 -18 17 -24q14 4 25 2q4 -9 2 -15t-8 -8.5t-15 -8.5z" />
    <glyph glyph-name="Ograve" unicode="&#xd2;" horiz-adv-x="531" 
d="M511 356q0 -3 1 -9t1 -9q-2 -4 -7 -9q-12 -59 -68 -133q-6 -5 -19 -33q-88 -89 -117 -112q-76 -60 -144 -60q-9 0 -18 1q-15 4 -40 21q-67 31 -67 108q0 89 90 223q2 4 47 70q56 81 143 131q63 18 87 18q23 0 39 -11h14q64 -70 64 -151q0 -20 -4 -41q-2 -2 -2 -4z
M398 512l2 -4l-12 -12q-3 12 -9 13q-22 0 -52 -22q-22 -17 -39 -21q-176 -180 -201 -342q0 -90 75 -90q57 0 126 63q51 38 57 54q43 43 68 82q53 83 53 169q0 30 -7 56q3 8 -6.5 16.5t-9.5 14.5l-18 16q-9 8 -19 8q-4 0 -8 -1zM444 605q-12 2 -15 2q-4 8 -31 34
q-10 6 -26 21q-8 1 -9 9l-2 2l2 -1l-9 9q-2 3 -2 5q-3 4 -3 8q0 8 8 16q49 -43 106 -70q8 -10 8 -17q0 -9 -9 -15t-18 -3z" />
    <glyph glyph-name="Uacute" unicode="&#xda;" horiz-adv-x="445" 
d="M312 203l-49 -79q-9 -8 -24 -31.5t-27 -32.5q-56 -93 -126 -103q-58 22 -64 69q3 109 48 255q13 42 88 246q5 6 13 32q6 20 21 28q20 2 33 -8q3 -13 8 -39q-15 -12 -28 -43q-14 -34 -24 -45q-5 -23 -31 -85q-22 -51 -25 -87l-7 -4q-44 -162 -44 -222q0 -26 5 -47
q2 -5 11 -5q8 -1 16 5q52 39 134 168q17 21 40.5 65.5t36.5 62.5q52 98 105 280q27 19 41 11q13 -7 13 -21q0 -9 -9.5 -31t-9.5 -31q-5 -21 -62 -198q-38 -118 -48 -201q14 -5 14 -22q0 -7 -16 -52q-1 -3 -19 -18q-9 -3 -13 1l-9 6q-2 0 -11 -2q-2 71 19 178zM333 681
q42 40 100 45q2 -3 6 -6q4 -6 0 -12q-4 -5 -10 -5l-2 -1q-7 0 -9 -4q-37 -16 -47 -23q-26 -17 -40 -36q-8 -2 -15 4.5t-5 15.5q4 2 6 5t16 17z" />
    <glyph glyph-name="Ucircumflex" unicode="&#xdb;" horiz-adv-x="445" 
d="M312 203l-49 -79q-9 -8 -24 -31.5t-27 -32.5q-56 -93 -126 -103q-58 22 -64 69q3 109 48 255q13 42 88 246q5 6 13 32q6 20 21 28q20 2 33 -8q3 -13 8 -39q-15 -12 -28 -43q-14 -34 -24 -45q-5 -23 -31 -85q-22 -51 -25 -87l-7 -4q-44 -162 -44 -222q0 -26 5 -47
q2 -5 11 -5q8 -1 16 5q52 39 134 168q17 21 40.5 65.5t36.5 62.5q52 98 105 280q27 19 41 11q13 -7 13 -21q0 -9 -9.5 -31t-9.5 -31q-5 -21 -62 -198q-38 -118 -48 -201q14 -5 14 -22q0 -7 -16 -52q-1 -3 -19 -18q-9 -3 -13 1l-9 6q-2 0 -11 -2q-2 71 19 178zM423 696
q-5 -5 -10 -5q-12 0 -13.5 15t-4.5 37q-4 46 -17 75q-22 -17 -34 -48q-1 -4 -7 -11q0 -4 -4.5 -10t-5.5 -8t-6 -6q0 -1 -3 -2l3 2q-5 3 -11 7t-6 11q0 5 4 11q16 28 29 45q6 3 12 11t12 11q12 6 30 0q7 -9 12 -28q6 -23 10 -30v-3q0 -4 3 -5l-1 -6q5 -34 7 -51q0 -3 1 -12z
" />
    <glyph glyph-name="Ugrave" unicode="&#xd9;" horiz-adv-x="445" 
d="M312 203l-49 -79q-9 -8 -24 -31.5t-27 -32.5q-56 -93 -126 -103q-58 22 -64 69q3 109 48 255q13 42 88 246q5 6 13 32q6 20 21 28q20 2 33 -8q3 -13 8 -39q-15 -12 -28 -43q-14 -34 -24 -45q-5 -23 -31 -85q-22 -51 -25 -87l-7 -4q-44 -162 -44 -222q0 -26 5 -47
q2 -5 11 -5q8 -1 16 5q52 39 134 168q17 21 40.5 65.5t36.5 62.5q52 98 105 280q27 19 41 11q13 -7 13 -21q0 -9 -9.5 -31t-9.5 -31q-5 -21 -62 -198q-38 -118 -48 -201q14 -5 14 -22q0 -7 -16 -52q-1 -3 -19 -18q-9 -3 -13 1l-9 6q-2 0 -11 -2q-2 71 19 178zM344 655
q-12 2 -15 2q-4 8 -31 34q-10 6 -26 21q-8 1 -9 9l-2 2l2 -1l-9 9q-2 3 -2 5q-3 4 -3 8q0 8 8 16q49 -43 106 -70q8 -10 8 -17q0 -9 -9 -15t-18 -3z" />
    <glyph glyph-name="dotlessi" unicode="&#x131;" horiz-adv-x="1342" 
d="M859 530q1 0 1 1zM859 533l-2 -5h1l1 2v0v3zM1174 307h2l3 -1q2 -1 4 -1.5t27 -8.5q49 -15 82 -30q14 -11 12 -22q-40 -16 -74 -31q-24 -11 -42 -17l2 -1q4 -4 5 -6l53 -54q4 -1 4 -3l4 -5q5 -5 8 -5q9 -7 9 -15q-2 -5 -12 -11q-26 1 -62 -3q-14 1 -44 -2l3 -17
q5 -30 15 -60q3 -5 7.5 -16t6.5 -15t2 -7q0 -9 -14 -9q-10 9 -56 32l-22 11q-1 -6 -5 -18q-5 -46 -26 -134q-4 -3 -7 -3q-4 0 -8 4t-5 4q-12 19 -40 55q-24 -39 -32 -77l-1 2q-5 -14 -9 -39q-5 -5 -10 -5q-4 0 -8 4q-24 36 -42 68q-2 3 -2 5l-3 4l-1 2q-16 -25 -80 -117
q-11 -1 -20 16q-7 26 -28 74q-18 -25 -59 -71q-2 -5 -5 -5l-18 -25q-4 -3 -8 -3q-7 0 -13 9q-9 32 -35 93l-1 -1q-4 -4 -8 -7l-86 -79q-4 0 -7 -3l-2 -3q-5 -5 -12 -5q-4 0 -9 2q-7 13 -9 71q-1 3 -1 9t-1 9q1 7 -3 17.5t-4 15.5q-29 -15 -90 -41q-3 -3 -15 -8q-2 0 -8 -5
q-9 11 -9 19q0 2 7 24q5 10 19 53h-3l-119 -51q-4 4 -10 21q4 18 14 42l17 41q-2 3 0 5q-20 -8 -89 -28q-4 -2 -17 -5q-19 -4 -32 1q-2 23 12 41q22 29 23 32l5 11h2q7 9 19 28l-44 -2q-68 -3 -100 5q-15 4 -15 16q0 3 1 7q5 10 18 16t16 9q17 8 49 27q-53 14 -63 17
q-39 11 -59 23q-4 1 -7 4l-1 1q-4 9 -4 16q0 4 2 7q6 6 13 5h2q2 -2 4 2q10 4 28 10q31 10 72 28q-23 18 -75 65q-3 8 -12 18v0q-1 3 -3 7l4 -1l2 6q4 2 6 2t6 -2l1 -1l56 5q12 1 41 -2q2 1 9 1q0 4 -2 13.5t-2 14.5l-28 79l2 6h-1v1q0 6 6 10q4 -2 20 -11q8 -5 30 -28
q19 -20 33 -23q2 6 8 16q5 19 13 55v4l-2 -2q6 21 14 87q5 3 8 3q4 0 5 -3l3 -2l5 -1q0 1 9 -29q2 -7 8 -18q7 -19 24 -57q4 7 12 38l9 33l4 31q3 15 8 45q1 7 12 6q7 -4 12 -13.5t8 -12.5q12 -30 41 -87q9 46 35 134q15 0 21 -9q7 -14 10 -15q17 -29 48 -88q9 13 28 36l2 8
l2 -1q8 12 21 37l6 9q3 6 8 6q4 0 10 -4q3 -6 9 -21q12 -30 18 -73q7 16 41 54l4 10l1 -1q6 7 14 20q1 4 5 8l1 2q2 0 2 2l5 6q0 1 1 1v1q2 2 5 2q9 0 25 -42q7 -28 8 -52l2 4l3 3l2 1l4 5q5 6 10 7q1 3 5 5l2 1q1 0 1 3q16 12 43 39l6 6l2 4q5 5 9 5t7 -3l4 -2q6 -20 9 -51
q-2 -2 -1 -5q2 -3 1 -5t-1 -11v-6l4 12q-1 -5 -3 -14l1 1q8 11 8 18q4 1 6 3v3q2 4 5 7q6 8 14 21l7 8l23 27q7 -2 16 -10q-2 -21 0 -58q1 -15 -1 -39q-1 -13 0 -41l74 53q7 3 17 15q6 5 18 13q3 5 9 7h6q8 -8 8 -21q0 -9 -5 -21q1 -4 -4 -14l-22 -72v-5l-1 -2q42 25 129 64
q11 4 18 4q5 0 8 -2q3 -5 3 -10q0 -6 -5 -14q-8 -11 -9 -12q-25 -28 -69 -88q6 2 11 2q24 8 137 17l4 -1l1 1q7 0 10 -2q5 -6 5 -11t-6 -10q-11 -2 -27 -11q-19 -11 -27 -14zM185 -28l-1 -2l1 1q5 1 4 1h-4zM1263 255q-15 6 -37 13q-9 5 -46 13q-29 6 -42 23q0 12 10 13
l21 14q2 2 8 6l3 1q3 1 7 6q8 5 25 12l1 1q-10 -1 -23 -4q3 -1 -18 -1q-4 -2 -8 -1q-29 -4 -74 -19q-13 6 -14 18q7 11 22 32q0 4 4 6l2 1l2 6q3 3 8 9q14 19 44 55l2 2q-22 -7 -65.5 -34t-69.5 -33q-11 5 -10 15q1 13 0 15q3 13 11 38q0 4 2.5 11.5t2.5 11.5q4 4 5 13.5
t4 13.5q2 1 2 3v2q-20 -18 -67 -52q-4 -1 -7 -4l-4 -2q-2 -2 -3 -2q-9 -10 -33 -21q-12 2 -12 21q2 8 0 21q1 5 1 54q-1 7 1 21q-3 7 -1 17v4q-15 -19 -41 -67q-11 -21 -24 -37q-3 -2 -6 -2q-14 0 -14 24q0 6 2.5 20t1.5 22q2 8 0 22q-2 15 -2 22q-20 -17 -57 -53
q-8 -14 -27 -41q-3 -2 -6 -2t-6 3l-1 1q-9 18 -9 38q0 7 1 15q0 8 -5 23q-2 6 -4 20q0 2 -2 7q-24 -32 -71 -100v-2q-4 -10 -12 -9q-6 0 -12 11q-4 18 -10 54q-7 14 -10 35q-3 -6 -7 -10l-57 -82q-11 -1 -20 16q-11 35 -51 95q-7 -20 -10 -33q-8 -34 -17 -85l-1 -3v-4
q0 -8 -6 -12q-6 -1 -13 2q-7 11 -43 79q-2 4 -8 17q-3 2 -5 8l-1 -3q-3 -28 -4 -24q-4 -21 -15 -64q-1 -5 -5 -17q-1 -7 -7 -21q-1 -6 -2.5 -12t-8.5 -8q-8 -2 -11 5q-3 3 -5 9q-19 35 -36 82l-12 -66q-7 -38 -20 -63q-6 -5 -11 -5q4 0 -20 8q-7 3 -41 36q17 -36 24 -85
q1 -9 -4.5 -12.5t-14.5 -3.5q-64 3 -82 0q-2 -1 -7 -1h-2l8 -8q16 -10 43 -35q25 -11 29 -34q1 -5 -3 -9l-2 -2l-79 -32q-22 -6 -33 -11q2 -1 51 -16q25 -3 77 -22q2 -6 4 -11q1 -7 -5 -11q-15 -13 -37 -26q-33 -20 -40 -23h5q5 -1 17 -3q5 1 10 1q7 0 15 -2l1 1q5 3 11 2
h28q4 2 12.5 2t12.5 2h17q23 0 20 -16v-10l-26 -41q-11 -14 -30 -43q13 1 29 4q11 4 16 4q11 5 40 16q5 2 16 6l15 6q11 1 14 -12q-1 -15 -22 -77l-1 -2q-1 -4 -5 -17q13 4 45 20q4 2 36 17h-3q27 8 38 18q3 -1 4 -2h3q5 0 10 -6q0 -2 -5 -33q-9 -22 -6 -32l-5 -1l-7 -20
l46 20q15 4 40 21v1q2 8 6 9l4 1q10 0 12 -4l2 -2q4 -3 4 -7q0 -3 -2 -6q0 -4 3.5 -12.5t3.5 -12.5q3 -28 6 -82q13 8 19 16q7 4 9 7h1q2 5 8 11l2 2l2 1l5 4q2 3 5 4q14 16 24 25t37 29q8 -8 18 -25q9 -26 28 -77l23 24q5 5 13 19l3 3q3 3 5 4q22 34 35 50q4 7 9 7
q4 0 10 -6q14 -25 36 -83q7 10 22 28q0 2 3 7q2 1 5 5l3 4q2 0 3.5 4t16.5 27q8 10 18 33q3 5 15 5q10 -18 38 -60q3 -4 9 -15l1 3q1 2 2 12q4 15 17 43v1l1 1l-1 2q1 2 3 4q7 11 20 38q5 10 19 5q13 -21 43 -58q0 3 1 8v8q2 4 3.5 12t3.5 12q2 11 4 28q1 -8 3 23q2 11 2 27
q2 1 3 10t6 15q15 2 18 -1q18 -8 55 -23l-10 26q-3 16 -10 47q-5 22 -4 24q3 8 14 6q29 1 88 8q-18 20 -30 27l-2 3l-1 1q0 1 -3 2q-15 18 -30 33l-2 2q-7 9 -4 18q10 5 30 12l66 29l2 2h1l3 2q1 0 2 1h1z" />
    <glyph glyph-name="circumflex" unicode="&#x2c6;" horiz-adv-x="483" 
d="M437 420l-1 -1l2 1h-1zM439 420q-7 4 -8 4l6 -4h1h1zM131 329q1 0 1 1v-3q1 -1 -1 -5.5t-5 -12.5q-1 -2 -3 -4q-2 -7 -20 -28q-3 11 -1 19l1 4q3 7 5.5 16t7.5 25q-10 1 -28 5t-17 4q-3 2 -6 2l-6 1q-7 1 -12 6q-3 1 -16 16v6q0 4 1 7q1 12 17 20q28 21 78 24q2 -1 4 -1
h4q10 0 31 -6q1 13 10 35l-2 4h-1q-1 -1 -2 -1q-34 -5 -44 1q-20 12 -34 35l-1 3q-2 2 -4 8l2 -3q-1 4 -1 8q0 12 9 29q5 6 19 16q1 1 3 1h1q-2 15 -2 28q7 18 15 23l2 2q4 7 13 9q10 7 33 11q2 0 6 1.5t6 1.5q14 6 30 3q2 0 6 1q3 0 4 -1h10v-2q27 -4 36 -31q3 2 7 6
q21 16 42 23q3 3 6 3l2 1h4q3 3 10 3h1q4 1 9 3h4q1 0 3 1l2 -1q4 2 7 1h2q3 1 7 0h7q1 -1 4 0l10 -2q3 2 5 0h2q8 -1 23 -8q2 0 5 -2q18 -13 23 -37q4 -6 4 -21q1 -8 7 -9q41 -26 41 -65v-23l-2 -2h1v-1l-4 -12l-3 -4l-2 -5l-9 -9q-2 -1 -4 -3l-1 -1l-14 -11h10
q-17 -4 -43 -9l-7 -3v0h-1l9 -7q14 -10 12 -28q0 -3 -12 -24q-21 -18 -38 -22l-4 -1q-3 0 -22 -7q-4 2 -8 0q-5 -2 -8 -2l-3 -2h-14q-3 0 -6 -1q4 -2 4 -8q-2 -8 -2 -12q-2 -8 -4 -12q-1 -15 -13 -35q0 -3 -3 -6q-2 -7 -19 -14q3 14 14 45q7 20 8 34q1 2 1 4v2q-6 -1 -10 -1
h-7q-1 -1 -4 -1q-5 -1 -9 0q-14 0 -41 2q-3 2 -15 -2q-3 3 -15 5h-10q-2 1 -6 1h-4l-14 2q-9 1 -13 0l-4 2l1 -1h-2q-1 0 -4 1h-4q-6 0 -19 2q1 0 -18 4l1 -4zM182 408v-5q-2 -2 -6 -2q5 0 -22 8q-5 1 -16 4h-18q-7 0 -21 -4q-2 0 -6.5 -1.5t-7.5 -1.5q-10 -3 -27 -14l-2 -1
q0 -1 -7 -8q0 -1 1 -4q7 -8 46 -17q44 -10 85 -14q100 -10 134 -9q4 2 5 2q23 4 70 10q52 14 52 39q-5 13 -14 14q-5 6 -13 7q-16 6 -49 6q-6 3 -8 14q5 8 12 8q16 -2 12 -2q8 -2 20 -2q18 0 46 5q2 0 4 1t12 4q1 1 4 2q27 14 31 29q3 6 3 15q0 7 -2 17q0 4 -3 10
q-3 11 -15 23l-2 2l-11 7v-7l-9 5q-3 18 -13 50q-1 14 -17 23l-15 6q-14 2 -27 2q-18 0 -36 -3q-2 -1 -3 -2l-5 -2q-3 -1 -8 -1q-7 -4 -21 -10q-3 -1 -9 -7q-2 0 -4 -2l-2 -2q-5 -3 -14 -12l-4 -4q-1 -1 -3 -2q-1 -6 -5 -6q-2 0 -6 3q2 2 3 1l-8 7q3 9 -3 24q-2 6 -12 9
q-9 0 -11 2h-1q-2 1 -17 0q-23 -1 -43 -7q-3 -3 -7 -3l-4 -1q-2 -1 -18 -10l-2 -3v-1q-5 -4 -10 -18v-5q2 0 3 -4l3 -5q1 -4 8 -9q-1 -5 0 -14q0 -12 -4 -16l-9 4q2 -1 2 -5h-1q-6 3 -6 13v5h-1q-4 -2 -7 -2q-16 -12 -16 -24q0 -11 20 -31q8 -8 23 -8q16 0 23 7l2 1q2 4 9 4
q6 -2 7 -9q9 8 15 11q30 14 54 14q14 0 22 -6q5 7 13 21q15 13 32 17q19 4 40 -6l2 -2h-1l4 -3q0 -1 5 -6.5t5 -11.5l-2 -3h1q0 -4 -4 -8q-6 0 -9 3l-1 1q-7 16 -24 18q-13 0 -19 -3h-1q-1 -1 -2 -1q-8 -4 -15 -11q-7 -14 -13 -33q-7 -1 -17 9q-3 3 -24 6l-35 -9
q-35 -21 -33 -54q-1 -1 -1 -4l1 -3q1 -3 1 -5q0 -3 -2 -5zM420 316v-1q1 -4 -12 -24q-5 -8 -10 -8l-4 10q0 -1 -1 -2v1q1 -1 13 37q3 2 7 2t8 -1q1 -9 -1 -14v0zM405 182l18 23l-23 -33l-1 -4q-3 -6 -16 -14q1 18 13 55q11 2 14 -2q2 -9 1 -12t-3 -7l-3 -5v-1zM344 168
q-2 -4 -19 -20q1 18 8 39q5 16 9 32q3 6 10 5q8 -6 7 -13q0 -3 -11 -31q-1 -4 -2.5 -8.5t-1.5 -3.5zM226 282q-3 -8 -13 -16q-4 6 -4 14q0 4 1 8q0 1 1 2q3 10 9 32q5 4 13 2q4 -4 4 -13q-2 -8 -11 -29zM251 162h1v-1q-2 -3 -11 -5q-2 6 21 86q2 6 10 4q6 -1 6 -7v-6
q-7 -23 -24 -70zM136 250v-1q3 7 6 12q-3 -6 -8 -17l-12 -24l-7 -3h3q-1 -1 -3 -1q-3 0 -8 3q5 13 17 47q4 10 13 37q5 2 9 1h1l3 -1q3 -3 3 -7v1l1 -5q-2 -4 -5.5 -14t-12.5 -28zM187 176v-1l-1 -2h-1q-2 -8 -15 -10v0v0q2 5 6 41l4 11q6 6 12 2q4 -3 4 -9v-4q-1 -7 -7 -21
v-3zM64 239q-1 -1 -2.5 -4t-2.5 -4q-2 -6 -13 -8q-2 10 0 14l1 3v3q2 10 8 29q4 3 9 3l6 -5q3 -5 1 -10t-7 -21zM89 163v1q4 -3 4 -7q-4 -18 -12 -36l-3 -9l-2 -3q0 -2 -2 -7l-13 -2q1 12 6 36q3 9 8 28q3 3 7 3q3 0 6 -1z" />
    <glyph glyph-name="tilde" unicode="&#x2dc;" horiz-adv-x="979" 
d="M348 454l3 -3q-1 3 0 4q-1 -1 -3 -1zM104 109q-4 -6 -10 -14t-7 -15l-3 -2q-7 -12 -20 -38l1 1q16 23 39 68zM113 126h-2l1 -2h-1l-1 -1l-2 -8zM174 222l-2 -3q-2 -3 -5 -8l6 8zM201 264q-2 -4 -4 -9q2 2 4 3v6zM215 284l-2 -3l1 -1q1 2 1 4zM262 355l-4 -7l3 3q0 2 1 4z
M310 421l-1 -1q-3 3 -4 3q-9 -13 -24 -37q16 19 19 24q3 1 7 6l2 3q0 1 1 2zM206 236v3l-2 -1zM216 266l-3 4v-9l4 3h-1v1v1zM705 -82v-12h-9l-2 -4q-14 -30 -19 -51q-2 -6 -8 -34q-6 -24 -6 -35q0 -9 2 -15l1 1q1 0 3 2l86 124l63 96l5 2h-1l2 1q2 2 5 2q2 0 5 -1
q4 -8 17 -20q-6 -22 -15 -67q-2 0 -5 -1l-1 -3q0 -6 -4 -9q0 -8 -6 -16h5q-5 -5 -13 -22q-3 -4 -8 -9v-6q-4 -2 -6 -9t-3.5 -8.5t-3.5 -12t-9 -11.5v-5q10 6 39 57l-14 -30l2 2q52 73 119 96q2 3 11 6h2l3 3q18 8 56 18q2 4 9 4h2l-1 -1l8 1q7 11 11 11q3 0 6 -3q4 2 16 2
q-10 -23 -29 -25l-54 -25q-32 -15 -50 -32q-47 -30 -63 -56q-6 -2 -9 -7l4 -4q-9 -6 -35 -38q-21 -24 -47 -20q-13 2 -18 15q-1 2 -5 25q3 16 11 40l-11 -18q-4 0 -5.5 -5t-1.5 -6q-38 -59 -68 -70q-16 -3 -29 9q1 5 -3.5 10t-4.5 6q-1 9 -1 19q0 28 20 97q15 23 20 47
q3 3 4 6l1 5q1 2 2 5q26 56 45 119l-87 -114q0 -3 -2 -5l-3 -6q-2 -3 -2 -12q-7 -1 -7 -12q0 -4 -10.5 -19.5t-11.5 -27.5q-8 0 -10 -9q-2 -4 -4 -7q-14 -32 -49 -94q-4 -5 -8 -11t-11 -5q-12 -3 -18 3q-13 12 -6 27q2 9 9 27q12 23 31 71q3 2 3 5l1 3q0 9 7 11q2 5 11 21
q9 12 15 56v-14q-1 -7 -1 -8l2 2l54 94q-1 5 4.5 12.5l5.5 7.5q9 18 29 51q0 6 6.5 15.5t5.5 15.5l1 2q-115 -141 -214 -345q-10 -27 -33 -36q-16 -6 -27 16q-3 7 -3 13q0 8 4.5 22.5t5.5 19.5q13 31 34 76q12 28 48 100.5t78 143.5l27 48q4 1 6 7.5t4 8.5q4 9 16 26
q1 4 10 21l1 2q-15 -14 -36 -40q-44 -53 -72 -96q0 -2 -6 -10l-4 -4q0 -4 -9 -13l-2 -2l-2 -3q-1 -1 -1 -2q-27 -39 -51 -83l-82 -140q-3 -5 -11 -21l-34 -53q-21 -30 -41 -47q-6 -4 -12 -4q-5 0 -10 3q-13 3 -19 19l4 31q3 20 11 27q2 19 14 41l21 39q1 5 65 116
q29 52 56 92q20 31 60 84q1 5 7 13l2 2q3 3 3 8q13 12 26.5 35.5t20.5 31.5q16 24 46 73q5 5 9 12q-22 -19 -99 -104q-18 -24 -56 -71q0 -7 -9 -16l-2 -2q-4 -4 -5 -9q-22 -32 -37 -60q-7 -11 -32 -44q-13 -32 -31 -52q0 -7 -5 -12l-2 -2q-2 -2 -2 -6q-20 -23 -23 -37
q-17 -19 -41 -58q-26 -45 -38 -61q0 -2 -8 -12l-3 -2q-2 -3 -4 -7q-8 -7 -16 -7q-4 0 -7 1l-4 3v-1q-2 1 -4 1q-12 2 -9 13q-3 18 8 42l18 39l67 110q25 42 78 123q13 21 111 154q7 12 43 61q2 8 9 10q2 5 6 14l-18 -18q16 20 20 23q0 -1 -2 -5l8 8l-2 1q-21 -19 -60 -60
q-8 -9 -21 -28q-8 -6 -22 -25q-12 -10 -28.5 -34.5t-26.5 -33.5q-3 -7 -22 -28q-5 -15 -18 -30q-1 -2 -31 -49l-56 -89q-39 -66 -56 -92q0 -3 -4 -11l-2 -2q-2 -1 -2 -3q0 -3 3 -6l-27 -41q-15 -22 -40 -22q-7 3 -16 18q30 106 127 264l76 122h-1q12 21 45 73l94 137
q10 16 39 67q11 13 16 24q-38 -30 -139 -144q-1 -1 -4 -5l-5 -7q-5 -7 -13 -15q-2 0 -3 -2l-1 -1l-1 -2q-2 -2 -6 -5q1 -8 -6 -14q-8 -9 -9 -11q-1 -9 -14 -17q-6 -4 -4 -11l-10 -10v-1q0 -8 -7 -12v-2q-1 -3 -10 -10l-1 1q-2 -1 -4 -3q-1 -7 -9 -27q-6 3 -10 -5q2 -1 4 -4
q-1 -2 -4 -6q-2 0 -2 -2h-10v-8q1 -8 1 -16l4 -5h-4l1 -3l-3 3h-1q-3 0 -6 1v-6h-2q0 -2 -2 -2l-1 -2v2l-7 -4v-3q-1 -2 -1 -3v1q-18 -17 -12 -38h-7q0 -4 -4 -10q-21 -34 -38 -67q-6 -12 -31 -47q-17 -39 -45 -61l-10 2l-4 2q-2 0 -3 1q-8 3 -8 10q-2 9 2.5 22t4.5 19
q11 23 126 210l58 98q13 16 31.5 51t30.5 50q-1 7 3 12l8 10q0 7 -1 10q8 2 11 9l2 5q6 16 23 12q15 -6 13 -39q-1 -6 -5 -11l2 1q5 14 24 29v-1q6 13 24.5 30t24.5 27q14 16 98 86q13 3 19 -10q3 -7 4 -9q-6 -29 -25 -59q-17 -25 -35 -55q-4 -3 -25 -36q-2 -4 -12 -17
q-4 0 -6 -6t-4 -8q-32 -40 -47 -72q-10 -12 -27 -39h-4l-72 -106q-43 -62 -137 -251q-5 -9 -22 -54q14 17 34 49q23 37 33 50l12 25q32 45 56 85q8 10 17 32q13 14 30 45q14 18 36 51q15 16 38 52q16 20 50 57q8 9 20 26q42 48 115 107q8 -2 14 -11v-2l1 -1l7 -3
q-17 -38 -84 -131q-5 -7 -19 -21q-7 -15 -45 -57q0 -7 -11 -16v-3q-27 -30 -68 -90q-36 -53 -110 -175l-31 -52q-9 -19 -21 -57q9 5 37 49q11 19 31 46.5t49 77.5q1 6 12.5 21t12.5 26q13 8 32 45q3 6 13 15q6 17 25.5 45t26.5 41q2 5 10 10l3 2q5 2 5 7l2 1q-2 6 6 14.5
t8 10.5q32 41 100 118l42 40q2 1 9.5 5.5t12.5 4.5q19 0 19 -22q0 -9 -5 -19l-71 -110q-4 -5 -14 -15q-3 -9 -26 -32v-5l-5 -5h1q0 -4 -8 -11q-4 -9 -18 -25q-4 -5 -49 -70q-5 -6 -33 -53q0 -6 -6 -11l-5 -5q-6 -8 -37 -66q-38 -68 -65 -125q-3 -9 -13 -27q1 -9 -6 -25
q-2 -15 0 -22q2 0 5 5q12 10 17 17l31 43l40 67q3 9 18 24q16 34 28 49l1.5 9t9.5 11l27 44l3 6l3 7l9 14l61 95q11 18 75 97q24 30 62 68q12 7 20 -5l2 -3q2 -4 9 -5q-1 -10 -8.5 -25t-7.5 -22q-3 -3 -42 -71l-32 -53l-100 -164q0 -1 -9 -21q-70 -151 -65 -167q8 6 17 23
q12 21 16 25q10 18 28 56q4 1 6 11q2 4 4 6q24 45 75 124l44 70q14 16 38 50q4 1 10 11l3 5q3 7 11 12q10 16 41 44q10 -2 17 -17q1 -2 5 -5q-7 -38 -38 -93q0 -6 -4 -11l-3 -4q-2 0 -2 -2q-4 -13 -20 -33q-18 -24 -23 -34q-16 -31 -24 -40q-6 -15 -49 -88q0 -3 -1 -6l4 6
q26 53 45 79q4 2 19 27l71 92q20 20 28 19q3 -1 9 -12q1 -4 9 -4q1 -45 -21 -96q2 -5 -1 -9q-2 -14 -21 -48q-6 -10 -10 -23l-2 -6h-2z" />
    <glyph glyph-name="macron" unicode="&#xaf;" horiz-adv-x="582" 
d="M1891 368q-10 0 31 -1h30q12 -2 10 -14q-8 -2 -18 -2h-14h-56q-45 -1 -79 -1h-12h-45h-20q-16 1 -27 1h-2l-3 -1h-138h-12q-10 -1 -17 -1h-30q-10 0 -51 -1t-72 -1h-16h-18q-19 -1 -32 -1h-51q-31 0 -146 5q-24 1 -24 9q0 3 9.5 6.5t10.5 4.5q8 0 12 1h25q33 1 25 1h37
q12 0 36 1h36h25q36 0 68 -1t26 -1h27q6 0 16 1h11q36 0 107 -2t108 -2q25 0 47 1q15 1 40 -1q31 -1 41 -1q15 2 35 0q14 -1 71 1zM1045 333v-15q-1 -10 -5 -28q-2 -3 -5 -19q-2 -11 -14 -19q-14 12 -24 34q-24 55 -28 91q-3 30 16 65q3 8 13 14q8 -5 8 -12q0 -3 -2 -7
l26 -47q15 -30 15 -51q1 -3 0 -6zM135 342h-62q-11 2 -11 14q6 1 32 2q38 1 135 3q4 1 12 1h94l2 1h8q5 0 23 1h33h12l244 6q4 0 16 1l100 3q3 0 61 -2q47 -2 86 -2h8q4 0 6 -1q11 -3 11 -7q0 -2 -8 -6.5t-11 -4.5q-7 0 -18 -1q-15 -2 -19 -2q-17 -1 -25 0q-20 0 -54 -1
q-41 -2 -55 -2h-24h-94h-27q-7 0 -18 -1h-10h-215q1 0 -47 -1h-81h-35h-36q-23 -1 -33 -1z" />
    <glyph glyph-name="macron" unicode="&#x2c9;" horiz-adv-x="582" 
d="M1891 368q-10 0 31 -1h30q12 -2 10 -14q-8 -2 -18 -2h-14h-56q-45 -1 -79 -1h-12h-45h-20q-16 1 -27 1h-2l-3 -1h-138h-12q-10 -1 -17 -1h-30q-10 0 -51 -1t-72 -1h-16h-18q-19 -1 -32 -1h-51q-31 0 -146 5q-24 1 -24 9q0 3 9.5 6.5t10.5 4.5q8 0 12 1h25q33 1 25 1h37
q12 0 36 1h36h25q36 0 68 -1t26 -1h27q6 0 16 1h11q36 0 107 -2t108 -2q25 0 47 1q15 1 40 -1q31 -1 41 -1q15 2 35 0q14 -1 71 1zM1045 333v-15q-1 -10 -5 -28q-2 -3 -5 -19q-2 -11 -14 -19q-14 12 -24 34q-24 55 -28 91q-3 30 16 65q3 8 13 14q8 -5 8 -12q0 -3 -2 -7
l26 -47q15 -30 15 -51q1 -3 0 -6zM135 342h-62q-11 2 -11 14q6 1 32 2q38 1 135 3q4 1 12 1h94l2 1h8q5 0 23 1h33h12l244 6q4 0 16 1l100 3q3 0 61 -2q47 -2 86 -2h8q4 0 6 -1q11 -3 11 -7q0 -2 -8 -6.5t-11 -4.5q-7 0 -18 -1q-15 -2 -19 -2q-17 -1 -25 0q-20 0 -54 -1
q-41 -2 -55 -2h-24h-94h-27q-7 0 -18 -1h-10h-215q1 0 -47 -1h-81h-35h-36q-23 -1 -33 -1z" />
    <glyph glyph-name="breve" unicode="&#x2d8;" horiz-adv-x="847" 
d="M596 239l3 -1l-3 1v0zM589 240q4 -4 6 -4q0 2 1 3q-4 0 -7 1zM594 225l3 3h-2l-1 -3v0zM242 55q1 -3 0 -7q-6 -5 -12 -3t-9 2q-7 1 -23.5 3l-49.5 6q-13 -1 -36 4q-10 2 -6 17q47 45 67 70l-4 3q-6 3 -15 9l-1 1q-3 -1 -11 5l-1 2q-1 1 -5 1.5t-6 2.5l-2 2q4 0 -28 16
q-1 3 -2 3l-3 1q0 2 -4 3l-45 36q-3 3 -9 11l-1 4q0 7 1 9l57 42q48 34 96 72q2 5 5 5l3 1h4l4 -2v1l9 3l8 -4q24 -51 34 -143q13 -2 22 0q-6 43 -5 70q-1 8 1 21.5t2 19.5q1 2 1 6.5t1 6.5q2 29 2 59t-2 61q2 8 3.5 11t8.5 4q3 -2 7 -11q0 -2 -1 -4v-1l1 -3q1 -7 0 -21
q2 -8 1 -12q-1 -15 -1 -47q0 -17 -2 -23q1 -13 -2 -25q1 -6 0 -26q-2 -37 2 -72l3 -12q4 0 6 1h5q1 1 6 1.5t27 1.5q0 5 -3 15q0 9 11 108q1 4 2 10q-1 2 0 6l1 2q0 16 2 22v37q1 2 1 7v6q-1 1 -1 4q0 -1 1 -1l7 8q5 -2 5 -7l1 -3q2 -11 2 -14v-36l-1 -2q0 -13 -2 -18
q-4 -27 -6 -75q0 -11 -2 -24v-14q0 -3 3 -30l45 1q-2 22 13 127q9 64 4 115q5 2 15 2q0 -5 3 -26q0 6 3 18q0 -23 -3 -69q1 -2 0 -7v-3q-2 -22 -5 -32q1 -3 -1 -9q-1 -17 -6 -52q-1 -2 -1 -5l-1 -4v-4q1 -3 0 -7q0 -10 -2 -16v-16q0 -1 1 -1v-10h35q-1 19 5.5 56l19.5 111
q6 34 6 55q14 0 14 -7v-2q0 -1 -2 -2l1 -1q4 -3 2 -8q0 -3 -1 -4v-14q0 -7 -6 -36q1 -4 -2 -9l-3 -23l-2 -4l1 1v-1q0 -4 -2 -8l-5 -26q0 -10 -4 -32q1 -4 0 -9q-2 -6 -2 -8v-29h20q-3 27 12 88q1 1 2 3v4q0 5 12 48q2 4 4 14q0 3 4 5q0 -1 -2 -4l10 4l5 -10q-2 -3 -2 -5
l-1 -4q-2 -4 -4 -7q0 -6 -3 -17t-3.5 -16t-4.5 -25l-2 -6l-3 -19q-1 -7 -3 -23q1 -9 -2 -27v1q-1 -6 -1 -5q17 0 25 1q2 24 27 95v1q0 1 1 3q2 7 10 28q6 -19 4 -24q2 -4 1 -8q-2 -4 -16 -66q-3 -9 -8 -28q8 2 23 -1l-2 2h1l8 -3v3q28 33 106 116l3 3q17 17 38 44q7 2 16 -6
q-3 -4 -2 -7q-2 -20 -22 -69q-1 -6 -8 -18q0 -4 -3 -7v-3q-14 -24 -40 -74q4 -15 15 -32l2 -2l16 -25l11 -20q14 -28 50 -81q12 -18 22 -35l-3 -8q1 2 3 2q-2 -7 -9 -8q-8 4 -23 15.5l-20.5 16t-17.5 12.5q-4 5 -17 15q-7 8 -27 29l-51 55q-6 7 -21 26q-8 12 -22 39h-10v-1
q2 -11 4 -30q2 -14 1 -23q-1 -11 -1 -43q-1 -2 -1 -14q-1 -4 -1 -12q-1 -4 -16 -27q0 31 3 44q1 21 0 62l-9 43h-5q-11 0 -32 -1q4 -12 4 -21.5t2 -34t2 -36.5q-1 -13 0 -44l-9 -30q-5 22 -6 40q-2 40 -10 115l-3 12q-11 -2 -20 1h-4q-3 -1 -4 -1q1 -5 3 -40q3 -47 3 -58
l-2 -1q0 -6 -1.5 -29t-1.5 -41v-6q-2 -4 -11 -25q-1 13 -4 28v9v35.5v18.5q1 5 1 2q0 2 1 16q2 30 -8 91q-3 -1 -31 -1h-13q4 -12 8 -33q7 -33 8 -53l1 -4v-32q-1 -1 -1 -2v-3q0 -5 -1 -7q3 -28 1 -63q1 -3 1 -13l-10 -11q-2 5 -7 27q0 5 1 10q-2 2 0 4v37q0 11 -2 32l1 3
h-1v5q0 29 -14 91q-1 6 -1 12q-30 -1 -40 -2q9 -40 9 -110v-19q1 -5 1 -41q0 -4 -8 -17q-7 4 -7 6l-1 -2v37q0 16 -2 26q0 25 -4 56l2 -3l-9 65l-1 1q-5 0 -52 -5q4 -2 9 -6q4 -33 2 -45v-27q-1 -35 -1 -26q0 -25 4 -53q0 -4 2 -13q0 -10 -10 -25q-8 24 -9 35q0 -4 -2 24
q-1 32 -5 115q-1 2 -1 6q0 6 2 15q-9 -1 -15 -1h-3v-12q0 -53 -1 -78q-1 -7 1 -22l-2 -20q-2 -17 -14 -22zM135 77q5 0 7 -1q31 -3 94 -12l3 -3q0 13 1 31q2 24 2 33v81q0 5 -3 13v36q0 2 -2 16q-5 33 -14 56q-2 6 -9 22q-4 7 -6 13q-1 -2 -2 -3q-3 -9 -22 -22l-3 -2
q-6 -5 -17 -12q-7 -6 -23 -16q-5 -5 -30 -22q-1 -1 -28 -22q-12 -6 -23 -17q4 -3 11 -11q21 -20 59 -41l64 -35l2 -8q0 1 1 1q0 -9 -1 -11l-37 -40q6 4 18 10q-31 -22 -38 -29zM612 222q6 -10 16 -29q17 -23 39 -47q32 -36 51.5 -54.5t38.5 -33.5l-17 28l-1 1l-3 6l-63 102
q-10 22 -10 31q3 8 15 27q32 54 49 102q-5 -6 -10 -11l-1 -1q-2 -2 -4 -3l-1 -1v1l-1 -4l-8 -8q-3 -4 -10 -10q-1 -5 -7 -9l-1 -1q-2 -3 -6 -8l-11 -11v-1l-18 -18l-2 -1v-1l-1 -1q-3 -4 -7 -7l-24 -28q2 -6 -3 -10zM188 294h2q10 3 33 8q5 -5 5 -9q0 -2 -2 -4q-5 -2 -14 -7
q-8 -1 -20 -8q0 -2 1 -6l4 -16q3 -13 2 -20l-2 -3q-4 -6 -15 -2v15q-2 8 -7 25q-17 -6 -31 -4q-4 4 -4 15q5 5 10 5h2q-3 1 18 4l-2 7q-2 8 0 15q4 6 11 4t7 -11v-1l-1 1l2 -3z" />
    <glyph glyph-name="dotaccent" unicode="&#x2d9;" horiz-adv-x="265" 
d="M158 625q-38 0 -43 1q-24 5 -30 26q-6 11 -6 22q0 19 28 61q32 8 47 8q29 0 44 -19l-10 -55q-9 -31 -30 -44z" />
    <glyph glyph-name="ring" unicode="&#x2da;" horiz-adv-x="1028" 
d="M989 229q2 -1 11 -10l-4 -9q-54 -7 -228 -43q-12 0 -37 -2q5 -6 14 -20q7 -8 27 -24q5 -4 15 -17q4 -1 6 -6l3 -1q43 -43 83 -91q5 -7 11 -11l1 -7q1 0 1 1l1 -2q2 -3 0 -10q-7 -7 -14 -7q-6 0 -16.5 6t-14.5 7q-60 37 -184 87q6 -25 20 -61q-2 -8 1 -23q5 -19 5 -24
q0 -15 7 -51q-1 -5 3.5 -15.5t4.5 -14.5q0 -10 -14 -17q-18 11 -40 40q-5 9 -38 59q1 3 -3.5 7.5t-4.5 5.5q-16 26 -36 51q-3 -8 -13 -23q-2 -8 -6 -9l-83 -157l-6 -1q-4 -8 -11 -8q-2 0 -5 1q-4 16 -15 43q-5 18 -3 49q0 12 -1 26q1 23 -1 68l-2 -1l-88 -32
q-50 -15 -77 -32q-2 1 -3 0q-4 -4 -7 -4q-51 -26 -86 -55q-2 -4 -6 -5h-1l-3 -1q-15 0 -18 13q0 6 4.5 12t5.5 7q33 39 98 124q3 1 4 2l2 4q3 3 3 5q17 17 42 54q-39 15 -98 30q-50 11 -99 23q-31 8 -63 6q-8 7 -8 13q0 5 7 10q45 18 86 22q32 8 92 31q7 -2 20 3.5t18 6.5
t36 11q-27 31 -90 92q-43 29 -70 53q-10 6 -19.5 13t-11.5 16q1 16 24 12q4 0 8 1q8 0 24 -4q21 -3 93 -22q27 -7 118 -22q-19 37 -54 113q-4 9 -13 31q-5 10 -12 36l-33 82q6 10 15 10q5 0 12 -3q13 -4 35 -22q5 -2 39 -26q12 -12 64 -58l5 -4q8 -7 53 -52q17 32 65 110
q8 14 26 51q5 3 10 3q9 0 16 -9l3 -3q1 -2 5 -6q21 -48 51 -155q1 -21 5 -63q8 1 24.5 5t25.5 5q30 9 88 30q11 4 29 17q4 1 5 1l4 2q3 1 14 0v-5l1 1l3 -8l1 -1v-1q0 -22 -25 -47q-8 -8 -22 -28l-81 -94q6 -2 8 -5q34 -12 109 -34l-1 -4q35 -9 104 -29q3 0 26 -4
q4 -1 10 -1q8 0 19 2zM824 29q-22 24 -69 68.5t-69 68.5q-5 4 -5 10q0 9 9 15q10 6 20 -2q33 -3 110 13q26 5 93 19q-51 14 -87 28q-31 11 -131 40q-14 4 -16 22l103 114q4 9 16 25l-91 -29q-3 -6 -11 -7q-11 -3 -13 -4q-8 0 -22.5 -4.5t-22.5 -4.5q-5 0 -11 1l-7 15
q5 21 5 44q0 35 -14 89l-33 84q-4 -4 -5 -9t-8.5 -13t-7.5 -12q-3 -5 -8 -9q-12 -22 -35 -69q-6 -7 -14 -29q-7 -18 -23 -26l-91 89q-54 52 -100 79q7 -14 17 -43q0 -4 4.5 -13t4.5 -14q4 -13 16 -36q8 -26 25 -55q6 -11 12 -32q27 -40 23 -73q-65 9 -166 33q-4 5 -7 3h-3
q-6 0 -11 3q-18 4 -55 9q8 -7 32 -23q15 -11 40 -36q24 -19 65 -59q11 -11 34 -29q-1 -5 0 -7l1 -2q2 -4 2 -8q0 -6 -4 -11q-17 -4 -61 -17q-52 -16 -151 -44q15 -5 46 -12q7 0 20 -6q6 0 20 -3.5t21 -3.5q27 -7 78 -25q14 -1 23 12q2 -4 6 -10l3 -1q5 -1 14 -11
q-3 -15 -17 -36l-102 -125q19 8 55 26q5 0 15.5 6.5t18.5 5.5q13 6 39 13q28 11 76 41q4 7 13 7q4 0 11 -2q4 0 9 1q3 -12 3 -25q-1 -21 0 -25q-5 -9 -2 -23q2 -16 0 -23q0 -24 4 -72q2 -2 2 -5l1 -2q18 28 50 87q12 33 42 95l9 1l-1 1q5 0 7 -1l5 5q9 -5 11 -15
q24 -35 70 -109q6 -8 14 -14q-1 4 -1 18q-1 8 -4 21t-3 18q-5 14 -11 41q-10 20 -27 61q1 6 12 14q9 7 18 -2z" />
    <glyph glyph-name="cedilla" unicode="&#xb8;" horiz-adv-x="308" 
d="M243 205l-27 -82q-17 -53 -18 -82q-5 -4 -5 -8q0 -2 1 -4q-4 -28 -25 -90q-17 -51 -19 -95h-3q-1 -14 -12 -35t-13 -34q-21 -57 -27 -70q-19 -41 -44 -60q-7 -3 -13 -3q-13 0 -30 13v31q12 -9 20 -9q5 0 7 4q48 70 71 170q10 43 39 180q-12 -10 -40 -28q-13 -11 -33 -11
q-24 0 -51 15q-28 24 -28 69q0 29 14 80q77 163 172 198q30 4 46 -20.5t16 -55.5q0 -14 -4 -25q14 -20 6 -48zM178 304q-69 -41 -112 -126l-2 2q-28 -55 -28 -98q0 -27 7.5 -36.5t34.5 -11.5q35 11 75 72l1 4q2 6 -4 8q0 26 33 98q2 12 8 30q12 36 8 48t-21 10z" />
    <glyph glyph-name="hungarumlaut" unicode="&#x2dd;" horiz-adv-x="1866" 
d="M1057 -11v1h-1zM1055 -19h1h-3q-8 1 -6 6q1 5 9.5 6t28.5 3q37 3 161 3h75h66q52 1 90 1h265q56 0 169 -3v-11q-191 -5 -357 -10q-53 -2 -126 -3q-151 -3 -255 0q-17 0 -62 2q-27 1 -54 4v5q-1 -2 -2 -3zM1014 -38v-1q-4 -4 -14 -4q-12 0 -16 24q6 12 13 15l8 4
q5 3 12 -1l8 -11q-1 -4 0 -5l1 -3q1 -6 1 -7l-4 -4q-4 -6 -9 -7zM955 -38v-1q-4 -4 -13 -4q-13 0 -17 24q6 10 14 15q1 1 7 4q5 3 12 -1l8 -11v-5l1 -3q1 -2 1 -7l-4 -4q-4 -6 -9 -7zM968 -82q-7 0 -10 3q-6 3 -6 10v11q3 9 13 15q1 1 7 4q5 3 12 -1l9 -11q-1 -4 -1 -6l1 -2
q1 -2 1 -7l-3 -4q-12 -12 -23 -12zM177 -21v-1h-41q-27 0 -44 1t-8 1q-4 1 -30 1h-5q-4 1 -5 1v11q2 0 7 1h6q51 -2 66 0h11h37q31 1 54 1h8q93 0 151 1h10q28 1 62 1h71l328 -1q31 -1 44 -6q2 -1 8 -2v-10q-34 -5 -107 -8l-21 -1q-24 -1 -101 -1h-18q-45 0 -82 1l-82 2
q-72 1 -198 3q-9 0 -36 1t-37 1h-25q-3 1 -21 1z" />
    </font>
</defs>
</svg>
